<svg xmlns="http://www.w3.org/2000/svg">
<defs>
<font
       vert-adv-y="0"
       vert-origin-y="0"
       vert-origin-x="0"
       horiz-adv-x="0"
       horiz-origin-y="0"
       horiz-origin-x="0"
       id="FontID0"
       font-variant="normal"
       font-style="normal"
       font-weight="400,700"
       style="font-style:normal;font-variant:normal">
      <font-face
         font-family="Arial"
         id="font-face7" />
      <missing-glyph
         id="missing-glyph9">
        <path
           d="M0 0z"
           id="path11" />
      </missing-glyph>
      <glyph
         unicode=" "
         horiz-adv-x="277"
         id="glyph13" />
      <glyph
         unicode="3"
         horiz-adv-x="556"
         id="glyph15">
        <path
           d="M37.684 190.012l132.63 15.9968c4.33745,-33.8241 15.6785,-59.6896 34.3414,-77.5169 18.5038,-17.9865 41.0267,-26.9797 67.3299,-26.9797 28.3327,0 52.1687,10.8237 71.5082,32.312 19.3394,21.5281 29.0092,50.3382 29.0092,86.8285 0,34.5006 -9.15241,61.8384 -27.8552,82.0135 -18.464,20.3343 -41.146,30.3223 -67.8074,30.3223 -17.509,0 -38.5197,-3.30283 -62.9924,-10.1472l15.1612 111.659c37.1667,-0.835655 65.4994,7.16275 84.998,24.1544 19.4986,17.1906 29.3275,39.8329 29.3275,68.1655 0,24.1942 -7.16275,43.3347 -21.4883,57.6602 -14.3653,14.3653 -33.5058,21.5281 -57.1827,21.5281 -23.4779,0 -43.4938,-8.15758 -60.008,-24.5125 -16.6733,-16.156 -26.8205,-39.992 -30.3223,-71.15l-126.502 21.3291c8.83406,43.3347 22.0056,77.9944 39.8329,103.82 17.6681,25.8257 42.499,46.16 74.1743,61.0028 31.8345,14.8428 67.3299,22.3239 106.645,22.3239 67.5288,0 121.528,-21.4883 162.197,-64.5046 33.5058,-35.1373 50.3382,-74.811 50.3382,-119.14 0,-62.8333 -34.3414,-113.012 -103.024,-150.338 40.9869,-8.83406 73.657,-28.4918 98.3287,-59.1723 24.5125,-30.4815 36.8484,-67.4891 36.8484,-110.824 0,-62.8333 -23.0004,-116.355 -68.842,-160.684 -45.8416,-44.1703 -102.984,-66.3351 -171.349,-66.3351 -64.8229,0 -118.464,18.663 -161.162,55.8297 -42.6582,37.3657 -67.3299,86.0326 -74.1345,146.359z"
           id="path17" />
      </glyph>
      <glyph
         unicode="2"
         horiz-adv-x="556"
         id="glyph19">
        <path
           d="M505.85 127.497l0 -127.497 -481.019 0c5.33227,48.1496 20.8516,93.8321 46.9956,137.008 26.0247,43.1755 77.5169,100.318 154.158,171.667 61.9976,57.501 99.8408,96.6574 113.848,117.151 18.8221,28.3327 28.3327,56.347 28.3327,84.0032 0,30.5213 -8.15758,53.9992 -24.6717,70.5133 -16.4743,16.4743 -39.1564,24.6717 -68.1655,24.6717 -28.651,0 -51.3331,-8.67489 -68.3247,-25.8655 -16.8325,-17.31 -26.6614,-46.0008 -29.3275,-85.9928l-136.689 13.6888c8.19737,75.4875 33.6649,129.646 76.6813,162.674 43.0163,32.8293 96.6574,49.3036 161.162,49.3036 70.6725,0 126.184,-19.1405 166.494,-57.1429 40.3502,-38.1616 60.5253,-85.5153 60.5253,-142.181 0,-32.1528 -5.84958,-62.8333 -17.3498,-92.0016 -11.5002,-29.1683 -29.8448,-59.6498 -54.8349,-91.4843 -16.6733,-21.1699 -46.6773,-51.6912 -89.813,-91.3649 -43.3347,-39.6339 -70.8715,-66.1361 -82.3717,-79.1484 -11.5002,-13.0123 -20.971,-25.6665 -28.1337,-38.0024l272.503 0z"
           id="path21" />
      </glyph>
      <glyph
         unicode="1"
         horiz-adv-x="556"
         id="glyph23">
        <path
           d="M393.514 0l-137.167 0 0 517.151c-50.1791,-46.9956 -109.192,-81.6554 -177.199,-103.979l0 124.513c35.6944,11.6594 74.6916,33.8241 116.673,66.4942 42.0215,32.8293 70.8317,70.9908 86.351,114.644l111.341 0 0 -718.822z"
           id="path25" />
      </glyph>
      <glyph
         unicode="I"
         horiz-adv-x="277"
         id="glyph27">
        <path
           d="M68.3247 0l0 715.838 144.528 0 0 -715.838 -144.528 0z"
           id="path29" />
      </glyph>
      <glyph
         unicode="H"
         horiz-adv-x="722"
         id="glyph31">
        <path
           d="M79.9841 0l0 715.838 94.8667 0 0 -293.991 371.986 0 0 293.991 94.8269 0 0 -715.838 -94.8269 0 0 337.326 -371.986 0 0 -337.326 -94.8667 0z"
           id="path33" />
      </glyph>
      <glyph
         unicode="M"
         horiz-adv-x="832"
         id="glyph35">
        <path
           d="M74.1743 0l0 715.838 142.658 0 169.32 -506.844c15.6785,-47.1548 27.1787,-82.491 34.1823,-106.009 8.15758,26.0247 20.8516,64.3454 38.1616,114.843l171.349 498.01 127.497 0 0 -715.838 -91.3251 0 0 599.164 -207.998 -599.164 -85.5153 0 -207.004 609.351 0 -609.351 -91.3251 0z"
           id="path37" />
      </glyph>
      <glyph
         unicode="E"
         horiz-adv-x="667"
         id="glyph39">
        <path
           d="M79.1484 0l0 715.838 517.509 0 0 -84.5205 -422.841 0 0 -219.14 396.021 0 0 -84.0032 -396.021 0 0 -243.693 439.515 0 0 -84.4807 -534.182 0z"
           id="path41" />
      </glyph>
      <glyph
         unicode="O"
         horiz-adv-x="777"
         id="glyph43">
        <path
           d="M48.3486 348.667c0,118.822 31.8345,211.819 95.6626,278.989 63.8281,67.1707 146.16,100.836 247.155,100.836 66.0167,0 125.667,-15.8376 178.671,-47.314 53.0044,-31.6753 93.5137,-75.6864 121.329,-132.193 27.8154,-56.3072 41.6634,-120.493 41.6634,-192.002 0,-72.6622 -14.4847,-137.644 -43.8122,-194.827 -29.3673,-57.3418 -70.8317,-100.676 -124.513,-130.163 -53.84,-29.4867 -111.659,-44.1703 -173.856,-44.1703 -67.4891,0 -127.656,16.1958 -180.661,48.8261 -53.1635,32.5109 -93.3148,76.9996 -120.653,133.347 -27.3378,56.1878 -40.9869,115.838 -40.9869,178.671zm97.6522 -1.51214c0,-86.3112 23.1596,-154.158 69.5185,-203.82 46.4783,-49.6618 104.656,-74.4926 174.652,-74.4926 71.3092,0 130.004,24.9901 176.005,75.1691 46.0008,50.1393 69.1604,121.329 69.1604,213.49 0,58.1775 -9.98806,108.993 -29.6856,152.487 -19.6578,43.4938 -48.468,77.1588 -86.3112,101.194 -38.0024,23.8361 -80.5014,35.8138 -127.656,35.8138 -67.1707,0 -124.831,-23.0004 -173.179,-69.1604 -48.3486,-46.0008 -72.503,-123 -72.503,-230.68z"
           id="path45" />
      </glyph>
      <glyph
         unicode="B"
         horiz-adv-x="666"
         id="glyph47">
        <path
           d="M73.1544 0l0 715.834 268.694 0c54.6748,0 98.4624,-7.35364 131.506,-21.6789 33.1391,-14.4685 58.9724,-36.816 77.643,-66.9946 18.6706,-29.9876 28.173,-61.5032 28.173,-94.4991 0,-30.5128 -8.35641,-59.3067 -25.0215,-86.3337 -16.4741,-26.9793 -41.6388,-48.8492 -75.16,-65.5143 43.3578,-12.654 76.497,-34.3329 99.8472,-64.798 23.3502,-30.7038 35.0014,-66.8513 35.0014,-108.538 0,-33.4734 -7.16264,-64.6548 -21.3447,-93.4963 -14.182,-28.7938 -31.6589,-50.998 -52.4783,-66.6603 -20.8672,-15.6623 -47.0347,-27.3135 -78.3593,-35.3357 -31.3246,-7.97441 -69.8119,-11.9855 -115.51,-11.9855l-272.992 0zm94.8333 415.003l154.856 0c41.8298,0 72.0084,2.8173 90.3448,8.30866 23.971,7.21039 42.1641,19.0049 54.2928,35.6699 12.1765,16.6651 18.3364,37.5322 18.3364,62.506 0,23.6845 -5.63461,44.6949 -16.9993,62.697 -11.508,18.1454 -27.8388,30.4651 -48.8015,37.1502 -21.2014,6.68513 -57.5399,9.97994 -109.015,9.97994l-143.014 0 0 -216.312zm0 -330.484l178.159 0c30.7038,0 52.1918,1.14602 64.5115,3.29481 21.8222,4.01108 40.0153,10.5052 54.6748,19.6734 14.6595,9.02493 26.645,22.3474 36.1475,39.681 9.35918,17.4768 14.182,37.4845 14.182,60.3094 0,26.6928 -6.82838,49.852 -20.4851,69.6686 -13.6568,19.6734 -32.6616,33.5212 -57.0146,41.5433 -24.162,7.83115 -59.1634,11.7945 -104.67,11.7945l-165.505 0 0 -245.965z"
           id="path49" />
      </glyph>
      <glyph
         unicode="A"
         horiz-adv-x="666"
         id="glyph51">
        <path
           d="M-1.48028 0l274.998 715.834 101.996 0 293 -715.834 -108.013 0 -83.5164 216.837 -299.303 0 -78.5025 -216.837 -100.659 0zm206.475 294.002l242.861 0 -74.8735 198.166c-22.6339,60.1662 -39.6333,109.684 -50.6637,148.505 -9.16818,-45.9841 -21.9654,-91.4908 -38.6305,-136.854l-78.6935 -209.818z"
           id="path53" />
      </glyph>
      <glyph
         unicode="L"
         horiz-adv-x="556"
         id="glyph55">
        <path
           d="M73.1795 0l0 715.838 94.8269 0 0 -631.357 352.487 0 0 -84.4807 -447.314 0z"
           id="path57" />
      </glyph>
      <glyph
         unicode="N"
         horiz-adv-x="722"
         id="glyph59">
        <path
           d="M76.1639 0l0 715.838 97.1747 0 376.005 -561.998 0 561.998 90.8078 0 0 -715.838 -97.1349 0 -376.005 562.515 0 -562.515 -90.8476 0z"
           id="path61" />
      </glyph>
      <glyph
         unicode="G"
         horiz-adv-x="777"
         id="glyph63">
        <path
           d="M412.177 280.82l0 83.844 303.144 0.51731 0 -265.499c-46.4783,-37.1667 -94.4688,-65.0219 -143.971,-83.844 -49.5026,-18.663 -100.358,-28.0143 -152.368,-28.0143 -70.3144,0 -134.302,15.002 -191.643,45.1651 -57.501,30.004 -100.836,73.6968 -130.163,130.521 -29.3275,56.9837 -44.0111,120.653 -44.0111,191.007 0,69.6379 14.6836,134.66 43.852,194.986 28.9694,60.4855 70.9908,105.332 125.667,134.66 54.6359,29.1683 117.668,43.852 188.977,43.852 51.6912,0 98.4879,-8.35655 140.35,-25.189 41.8225,-16.6733 74.6518,-39.992 98.3287,-69.996 23.8361,-30.004 41.8225,-69.0012 54.3175,-117.151l-85.4755 -23.5177c-10.8635,36.4903 -24.1942,65.1811 -40.0318,85.9928 -15.9968,20.8516 -38.7982,37.5249 -68.4839,50.0199 -29.4867,12.495 -62.5149,18.8221 -98.4879,18.8221 -43.3347,0 -80.8595,-6.64544 -112.336,-19.817 -31.6753,-13.1715 -57.0235,-30.5213 -76.5221,-52.0096 -19.2996,-21.4883 -34.3016,-45.006 -45.1651,-70.8317 -18.1456,-44.1703 -27.3378,-92.1608 -27.3378,-144.011 0,-63.8281 11.0227,-117.151 33.0283,-160.167 22.0056,-42.9765 53.9992,-74.811 95.9809,-95.6626 42.0215,-20.8118 86.5101,-31.3172 133.665,-31.3172 41.1858,0 81.1779,7.99841 120.175,23.8361 39.1564,15.6387 68.6828,32.4712 88.8181,50.4974l0 133.307 -210.306 0z"
           id="path65" />
      </glyph>
      <glyph
         unicode="C"
         horiz-adv-x="722"
         id="glyph67">
        <path
           d="M587.823 251.015l94.8269 -23.9952c-19.817,-77.6761 -55.6307,-137.008 -107.163,-178.034 -51.6514,-40.8277 -114.644,-61.162 -189.335,-61.162 -77.1588,0 -139.833,15.6785 -188.142,46.9956 -48.3486,31.5161 -85.1572,76.9996 -110.346,136.53 -25.1492,59.6498 -37.8432,123.637 -37.8432,192.002 0,74.4926 14.1663,139.475 42.698,194.986 28.4918,55.5113 68.9614,97.6522 121.647,126.502 52.4871,28.8102 110.346,43.1755 173.498,43.1755 71.6673,0 131.834,-18.1854 180.661,-54.6757 48.8261,-36.4903 82.8492,-87.6641 101.99,-153.84l-93.1556 -22.0056c-16.6733,52.1687 -40.6685,90.0119 -72.3438,113.848 -31.4763,23.8361 -71.15,35.6546 -119.14,35.6546 -54.994,0 -100.836,-13.1715 -137.843,-39.5145 -37.0076,-26.4624 -62.9924,-61.7986 -77.8353,-106.327 -15.002,-44.3295 -22.4831,-90.1711 -22.4831,-137.326 0,-61.0028 8.83406,-114.007 26.5022,-159.491 17.8273,-45.3243 45.3243,-79.3474 82.8094,-101.83 37.5249,-22.5229 77.9944,-33.6649 121.687,-33.6649 53.0044,0 97.8114,15.3203 134.66,45.8416 36.8086,30.6407 61.6793,76.1639 74.6518,136.331z"
           id="path69" />
      </glyph>
      <glyph
         unicode="R"
         horiz-adv-x="722"
         id="glyph71">
        <path
           d="M78.6709 0l0 715.838 317.31 0c63.8679,0 112.336,-6.48627 145.523,-19.3394 33.1476,-12.8134 59.6498,-35.4954 79.6657,-68.0064 19.817,-32.6701 29.6458,-68.6431 29.6458,-107.998 0,-50.8158 -16.3152,-93.4739 -49.3036,-128.333 -32.8293,-34.8189 -83.6848,-56.9837 -152.328,-66.4942 25.1492,-12.0175 44.1305,-23.8361 57.1429,-35.6546 27.6562,-25.3482 53.84,-57.1827 78.6709,-95.185l124.513 -194.827 -119.18 0 -94.6677 148.985c-27.6562,42.8571 -50.4974,75.8456 -68.4839,98.5277 -17.8273,22.8014 -33.8639,38.838 -48.0302,47.8313 -14.1663,9.15241 -28.4918,15.4795 -43.1357,19.1405 -10.8635,2.18862 -28.3327,3.34262 -52.8452,3.34262l-109.829 0 0 -317.827 -94.6677 0zm94.6677 399.841l203.661 0c43.1755,0 77.1588,4.49662 101.512,13.4899 24.4727,8.99324 42.9765,23.3187 55.6705,43.0163 12.6542,19.6578 18.9813,40.9869 18.9813,64.1464 0,33.8241 -12.1767,61.6793 -36.8484,83.5257 -24.4727,21.8066 -63.3108,32.6303 -116.474,32.6303l-226.502 0 0 -236.809z"
           id="path73" />
      </glyph>
      <glyph
         unicode="T"
         horiz-adv-x="610"
         id="glyph75">
        <path
           d="M259.335 0l0 631.315 -235.842 0 0 84.5191 567.329 0 0 -84.5191 -236.845 0 0 -631.315 -94.6423 0z"
           id="path77" />
      </glyph>
      <glyph
         unicode="P"
         horiz-adv-x="667"
         id="glyph79">
        <path
           d="M77.1588 0l0 715.838 269.996 0c47.5129,0 83.844,-2.34779 108.834,-6.84441 35.1771,-5.80979 64.6637,-16.9916 88.4998,-33.5058 23.6769,-16.3152 42.8571,-39.4747 57.3418,-69.0012 14.4847,-29.6458 21.6872,-62.1568 21.6872,-97.6522 0,-60.8436 -19.3394,-112.495 -58.0183,-154.676 -38.838,-41.9817 -108.834,-63.1516 -209.988,-63.1516l-183.685 0 0 -291.007 -94.6677 0zm94.6677 375.487l185.157 0c61.2018,0 104.696,11.341 130.362,34.1823 25.6665,22.8412 38.4799,54.8349 38.4799,96.1799 0,29.9642 -7.4811,55.6307 -22.6423,76.9996 -15.201,21.3291 -35.0179,35.3363 -59.8488,42.1409 -15.9968,4.17827 -45.3243,6.3271 -88.3406,6.3271l-183.168 0 0 -255.83z"
           id="path81" />
      </glyph>
      <glyph
         unicode="Q"
         horiz-adv-x="777"
         id="glyph83">
        <path
           d="M619.658 76.6813c43.852,-30.3621 84.5205,-52.3677 121.528,-66.3351l-27.8552 -66.0167c-51.3331,18.5038 -102.666,47.8313 -153.84,87.8233 -53.0044,-29.4867 -111.5,-44.3295 -175.647,-44.3295 -64.8627,0 -123.518,15.6785 -176.363,46.8365 -52.6462,31.3569 -93.3148,75.1691 -121.807,131.834 -28.4918,56.6653 -42.6582,120.493 -42.6582,191.325 0,70.6725 14.3255,135.018 42.9765,192.996 28.6908,57.8591 69.3593,102.029 122.324,132.352 52.8452,30.1632 112.018,45.3243 177.358,45.3243 66.1759,0 125.667,-15.6387 178.83,-47.1548 53.0044,-31.3569 93.5137,-75.3283 121.329,-131.834 27.8154,-56.5062 41.6634,-120.175 41.6634,-191.166 0,-58.854 -8.83406,-111.819 -26.8205,-158.854 -17.8273,-46.9956 -44.8468,-87.9825 -81.0187,-122.801zm-208.476 121.17c54.6359,-15.3601 99.6419,-38.2014 135.137,-68.5237 55.6705,50.8556 83.5257,127.179 83.5257,229.009 0,57.9785 -9.82889,108.675 -29.5265,152.01 -19.6578,43.1357 -48.468,76.8006 -86.3112,100.836 -38.0024,23.8361 -80.5014,35.8138 -127.855,35.8138 -70.4735,0 -129.168,-24.1544 -175.647,-72.503 -46.6773,-48.3088 -69.8368,-120.493 -69.8368,-216.673 0,-92.9964 23.0004,-164.505 69.0012,-214.326 46.16,-49.6618 105.014,-74.6518 176.482,-74.6518 34.0231,0 65.8575,6.3271 95.8615,18.9813 -29.6856,19.3394 -61.0028,33.0283 -93.8321,41.0267l23.0004 69.0012z"
           id="path85" />
      </glyph>
      <glyph
         unicode="S"
         horiz-adv-x="667"
         id="glyph87">
        <path
           d="M45.006 230.004l89.3355 7.83924c4.17827,-35.8536 14.0072,-65.1811 29.4867,-88.1815 15.5193,-23.0004 39.5145,-41.5042 71.9857,-55.6705 32.5109,-14.1663 69.2002,-21.1699 109.869,-21.1699 36.1321,0 67.9666,5.33227 95.6626,15.9968 27.6562,10.8635 48.3088,25.5074 61.8384,44.1703 13.4899,18.8619 20.3343,39.1962 20.3343,61.3609 0,22.4831 -6.52606,41.9817 -19.6976,58.8142 -12.9725,16.8325 -34.5006,30.8396 -64.3056,42.1807 -19.3394,7.4811 -61.6793,19.1405 -127.497,34.9781 -65.6984,15.8376 -111.858,30.6805 -138.201,44.6876 -34.1425,17.8273 -59.6498,40.1512 -76.4823,66.6534 -16.6733,26.5022 -24.9901,56.1878 -24.9901,89.1763 0,36.0127 10.1472,69.8368 30.6407,101.154 20.5332,31.5161 50.4974,55.3522 89.8528,71.6673 39.5145,16.156 83.1675,24.3534 131.317,24.3534 53.1635,0 99.8408,-8.51572 140.509,-25.6665 40.5094,-17.0314 71.6673,-42.1807 93.5137,-75.3283 21.6474,-33.1874 33.5058,-70.8715 35.1373,-112.853l-90.8078 -6.84441c-5.01393,45.1651 -21.4883,79.5066 -49.6618,102.507 -28.1735,23.1596 -69.6777,34.6598 -124.672,34.6598 -57.3418,0 -99.0052,-10.5054 -125.348,-31.4763 -26.1441,-21.0107 -39.3156,-46.3589 -39.3156,-75.8456 0,-25.8257 9.31158,-46.9956 27.8154,-63.5097 18.3446,-16.6733 65.8575,-33.6649 142.857,-50.9749 76.9996,-17.509 129.805,-32.6701 158.496,-45.6825 41.6634,-19.3394 72.503,-43.653 92.3199,-72.9805 19.817,-29.5265 29.6856,-63.5097 29.6856,-101.87 0,-38.1616 -10.8635,-73.9753 -32.6701,-107.64 -21.8464,-33.6649 -53.1635,-59.8488 -94.031,-78.6709 -40.8277,-18.663 -86.8285,-28.0143 -137.803,-28.0143 -64.8627,0 -119.18,9.35137 -162.833,28.3327 -43.852,18.8619 -78.1934,47.1946 -103.183,85.197 -24.8309,37.8034 -38.0024,80.8197 -39.1564,128.651z"
           id="path89" />
      </glyph>
      <glyph
         unicode="f"
         horiz-adv-x="277"
         id="glyph91">
        <path
           d="M86.8285 0l0 450.179 -77.4771 0 0 68.3247 77.4771 0 0 55.1532c0,34.8587 3.18345,60.8436 9.35137,77.6761 8.47593,22.8412 23.3187,41.345 44.6478,55.5113 21.3291,14.1663 51.1739,21.1699 89.6538,21.1699 24.6717,0 52.0096,-2.8651 82.0135,-8.83406l-13.1715 -76.6813c-18.1456,3.34262 -35.4954,5.01393 -51.8106,5.01393 -26.6614,0 -45.5233,-5.69041 -56.5062,-17.1906 -11.1819,-11.341 -16.6733,-32.6701 -16.6733,-63.9873l0 -47.8313 100.995 0 0 -68.3247 -100.995 0 0 -450.179 -87.505 0z"
           id="path93" />
      </glyph>
      <glyph
         unicode="c"
         horiz-adv-x="500"
         id="glyph95">
        <path
           d="M404.337 190.012l86.3112 -11.341c-9.31158,-59.4906 -33.466,-106.168 -72.4632,-139.833 -38.838,-33.6649 -86.6693,-50.4974 -143.335,-50.4974 -70.8317,0 -128.014,23.1596 -171.031,69.4787 -43.1357,46.3589 -64.8229,112.853 -64.8229,199.522 0,55.9889 9.35137,104.974 27.8552,146.996 18.663,41.9817 46.7967,73.4978 84.799,94.5086 37.8432,20.971 79.1882,31.4763 123.677,31.4763 56.347,0 102.507,-14.3255 138.162,-42.8173 35.8536,-28.4918 58.854,-68.842 69.0012,-121.329l-85.4755 -13.1715c-8.19737,34.8189 -22.5229,61.0028 -43.1755,78.6709 -20.6924,17.509 -45.6825,26.343 -75.0099,26.343 -44.3295,0 -80.3422,-15.8376 -107.998,-47.6721 -27.6562,-31.6753 -41.5042,-81.8544 -41.5042,-150.497 0,-69.6777 13.3307,-120.334 40.191,-152.01 26.6614,-31.5161 61.4803,-47.3538 104.497,-47.3538 34.5006,0 63.1516,10.6645 86.3112,31.8345 23.1596,21.1699 37.8432,53.6809 44.0111,97.692z"
           id="path97" />
      </glyph>
      <glyph
         unicode="b"
         horiz-adv-x="556"
         id="glyph99">
        <path
           d="M146.996 0l-81.4962 0 0 715.838 87.8233 0 0 -255.352c37.1667,46.5181 84.5205,69.8368 142.021,69.8368 31.9936,0 62.1568,-6.48627 90.6486,-19.3394 28.4918,-12.8134 51.8504,-30.9988 70.3542,-54.1584 18.3048,-23.3187 32.8293,-51.3331 43.1357,-84.3215 10.5054,-32.8293 15.6785,-68.0064 15.6785,-105.332 0,-89.0171 -22.0056,-157.66 -65.9769,-206.168 -43.852,-48.5078 -96.6972,-72.6622 -158.177,-72.6622 -61.162,0 -109.192,25.5074 -144.011,76.6415l0 -64.9821zm-0.994827 263.152c0,-62.1568 8.51572,-107.004 25.3482,-134.66 27.6562,-45.3243 65.1413,-68.0064 112.336,-68.0064 38.4799,0 71.6673,16.6733 99.6419,50.1791 28.0143,33.3466 42.0215,83.0084 42.0215,149.184 0,67.6482 -13.5296,117.668 -40.3502,149.821 -26.8205,32.1528 -59.3315,48.3486 -97.3339,48.3486 -38.4799,0 -71.6673,-16.6733 -99.6817,-50.0199 -27.9745,-33.3466 -41.9817,-81.6554 -41.9817,-144.847z"
           id="path101" />
      </glyph>
      <glyph
         unicode="g"
         horiz-adv-x="556"
         id="glyph103">
        <path
           d="M49.8209 -43.0163l85.5153 -12.6542c3.50179,-26.343 13.4899,-45.4835 29.6458,-57.6602 21.8464,-16.156 51.6912,-24.3534 89.3355,-24.3534 40.8675,0 72.1846,8.19737 94.3494,24.3534 22.1647,16.3152 37.0076,39.1564 44.8468,68.3247 4.65579,17.9865 6.64544,55.5113 6.3271,112.853 -38.3605,-45.1651 -86.1918,-67.8472 -143.494,-67.8472 -71.349,0 -126.502,25.6665 -165.499,77.1588 -38.9972,51.3331 -58.6948,113.172 -58.6948,184.998 0,49.5026 9.03303,95.185 26.8603,137.008 17.9865,41.8225 43.9713,74.1743 77.9944,97.0155 33.9833,22.6423 73.9753,34.1425 119.817,34.1425 61.162,0 111.659,-24.8309 151.333,-74.3335l0 62.5149 81.1779 0 0 -448.189c0,-80.6606 -8.31675,-137.963 -24.6717,-171.667 -16.5141,-33.6649 -42.499,-60.3263 -78.1536,-79.8249 -35.6944,-19.4986 -79.5066,-29.3275 -131.675,-29.3275 -61.8384,0 -111.819,14.0072 -149.821,41.8225 -38.1616,27.8552 -56.5062,69.6777 -55.193,125.667zm72.6622 311.5c0,-67.9666 13.5296,-117.668 40.6685,-148.826 27.0195,-31.3172 60.8436,-46.8365 101.512,-46.8365 40.3502,0 74.1743,15.5193 101.512,46.5181 27.3378,31.158 40.9869,79.8249 40.9869,146.319 0,63.5097 -14.0072,111.341 -42.1807,143.494 -28.1337,32.1926 -62.1568,48.3486 -101.83,48.3486 -38.9972,0 -72.1448,-15.8376 -99.6419,-47.6721 -27.3378,-31.6753 -41.0267,-78.8301 -41.0267,-141.345z"
           id="path105" />
      </glyph>
      <glyph
         unicode="n"
         horiz-adv-x="556"
         id="glyph107">
        <path
           d="M66.0167 0l0 518.504 78.9893 0 0 -73.657c38.1616,56.9837 93.1556,85.4755 164.982,85.4755 31.3569,0 60.008,-5.65062 86.1918,-16.8325 26.3032,-11.341 45.8018,-25.9849 58.8142,-44.3295 13.1715,-18.1456 22.1647,-39.8329 27.497,-64.8229 3.18345,-16.355 4.85476,-44.8468 4.85476,-85.5153l0 -318.822 -88.0223 0 0 315.519c0,35.6546 -3.34262,62.4751 -10.1472,80.3024 -6.84441,17.6681 -19.0211,31.8345 -36.3311,42.3398 -17.509,10.6645 -37.8432,15.9968 -61.3609,15.9968 -37.4851,0 -69.6379,-11.9777 -96.9757,-35.6546 -27.1787,-23.8361 -40.6685,-68.842 -40.6685,-135.336l0 -283.168 -87.8233 0z"
           id="path109" />
      </glyph>
      <glyph
         unicode="i"
         horiz-adv-x="222"
         id="glyph111">
        <path
           d="M66.3351 614.684l0 101.154 87.9825 0 0 -101.154 -87.9825 0zm0 -614.684l0 518.504 87.9825 0 0 -518.504 -87.9825 0z"
           id="path113" />
      </glyph>
      <glyph
         unicode="m"
         horiz-adv-x="832"
         id="glyph115">
        <path
           d="M66.0167 0l0 518.504 78.4719 0 0 -72.6622c16.355,25.3084 38.0024,45.8416 65.0219,61.162 26.9797,15.4795 57.8193,23.3187 92.3199,23.3187 38.3207,0 69.8368,-7.99841 94.3494,-23.9952 24.6717,-15.9968 41.9817,-38.1616 51.9698,-66.8126 41.1858,60.4855 94.5086,90.8078 160.167,90.8078 51.532,0 91.0068,-14.3255 118.703,-42.8173 27.6562,-28.4918 41.4644,-72.3438 41.4644,-131.516l0 -355.989 -87.306 0 0 326.661c0,35.1771 -2.82531,60.4855 -8.51572,76.0048 -5.80979,15.3203 -16.156,27.8154 -30.9988,37.3259 -15.002,9.35137 -32.6701,14.1663 -52.8452,14.1663 -36.4903,0 -66.6534,-12.1767 -90.8078,-36.4903 -23.9952,-24.1544 -36.1719,-62.9924 -36.1719,-116.315l0 -301.353 -87.8233 0 0 336.848c0,39.1564 -7.16275,68.4839 -21.5281,87.9825 -14.3255,19.4986 -37.6442,29.3275 -70.3144,29.3275 -24.6717,0 -47.5129,-6.48627 -68.5237,-19.6578 -20.971,-13.0123 -36.3311,-31.9936 -45.6427,-56.9837 -9.51055,-25.189 -14.1663,-61.3609 -14.1663,-108.516l0 -269.001 -87.8233 0z"
           id="path117" />
      </glyph>
      <glyph
         unicode="o"
         horiz-adv-x="556"
         id="glyph119">
        <path
           d="M33.1476 259.331c0,96.0207 26.7012,167.171 80.183,213.331 44.4887,38.3207 98.846,57.6602 162.992,57.6602 71.349,0 129.686,-23.3187 174.851,-70.1552 45.3243,-46.6773 67.8074,-111.182 67.8074,-193.514 0,-66.8126 -9.98806,-119.339 -29.9642,-157.501 -20.0159,-38.3207 -49.1842,-67.9666 -87.3458,-89.1365 -38.3207,-21.1699 -80.0239,-31.6753 -125.348,-31.6753 -72.503,0 -131.158,23.1596 -176.005,69.8368 -44.807,46.4783 -67.1707,113.49 -67.1707,201.154zm90.3701 0c0,-66.4942 14.4847,-116.156 43.4938,-149.184 28.9694,-33.1476 65.4994,-49.6618 109.312,-49.6618 43.6928,0 80.0239,16.6733 108.993,49.8607 28.85,33.1476 43.3347,83.8042 43.3347,151.811 0,64.1862 -14.4847,112.853 -43.653,145.842 -29.1683,32.9885 -65.3402,49.5026 -108.675,49.5026 -43.8122,0 -80.3422,-16.5141 -109.312,-49.3434 -29.0092,-32.8293 -43.4938,-82.491 -43.4938,-148.826z"
           id="path121" />
      </glyph>
      <glyph
         unicode="e"
         horiz-adv-x="556"
         id="glyph123">
        <path
           d="M420.852 167.012l90.8078 -11.1819c-14.3255,-53.1635 -40.8277,-94.3494 -79.5066,-123.677 -38.838,-29.1683 -88.3008,-43.8122 -148.468,-43.8122 -75.8456,0 -136.013,23.3187 -180.342,69.996 -44.5285,46.6773 -66.6932,112.177 -66.6932,196.498 0,87.3458 22.5229,154.994 67.3697,203.183 44.9662,48.1496 103.144,72.304 174.811,72.304 69.3195,0 125.985,-23.6371 169.837,-70.8317 44.0111,-47.1548 66.0167,-113.649 66.0167,-199.164 0,-5.33227 -0.198965,-13.1715 -0.51731,-23.4779l-386.669 0c3.18345,-57.0235 19.3394,-100.676 48.3486,-130.84 28.9694,-30.3223 64.9821,-45.5233 108.317,-45.5233 32.1528,0 59.6896,8.51572 82.491,25.5074 22.8412,16.8325 40.8277,43.852 54.1982,81.0187zm-288.5 142.141l289.495 0c-3.85993,43.5336 -15.002,76.3629 -33.1874,98.0103 -27.9745,33.8241 -64.3454,50.8556 -108.834,50.8556 -40.3104,0 -74.3335,-13.5296 -101.83,-40.5094 -27.497,-27.0195 -42.6582,-63.1914 -45.6427,-108.357z"
           id="path125" />
      </glyph>
      <glyph
         unicode="d"
         horiz-adv-x="556"
         id="glyph127">
        <path
           d="M402.348 0l0 65.4994c-32.8293,-51.4922 -81.1779,-77.1588 -145.006,-77.1588 -41.345,0 -79.3474,11.341 -114.007,34.1425 -34.6598,22.6821 -61.5201,54.5165 -80.6606,95.5034 -19.0211,40.8277 -28.4918,87.6641 -28.4918,140.828 0,51.6912 8.6351,98.6868 25.8257,140.867 17.31,42.1409 43.1755,74.4926 77.6761,96.8166 34.5006,22.4831 73.1397,33.8241 115.798,33.8241 31.1978,0 59.0131,-6.64544 83.3665,-19.817 24.4727,-13.1715 44.3295,-30.3223 59.6498,-51.4922l0 256.825 87.3458 0 0 -715.838 -81.4962 0zm-277.835 258.814c0,-66.4942 14.0072,-116.156 41.9817,-148.985 28.0143,-32.8293 61.0028,-49.3434 99.1643,-49.3434 38.3605,0 70.9908,15.8376 97.8512,47.1946 26.8205,31.3172 40.3104,79.3076 40.3104,143.812 0,70.9908 -13.649,123 -40.9869,156.188 -27.3378,33.3068 -61.0028,49.8209 -101.154,49.8209 -38.9972,0 -71.6673,-15.9968 -97.8512,-47.8313 -26.1441,-31.8345 -39.3156,-82.1727 -39.3156,-150.856z"
           id="path129" />
      </glyph>
      <glyph
         unicode="l"
         horiz-adv-x="222"
         id="glyph131">
        <path
           d="M63.9873 0l0 715.838 87.8631 0 0 -715.838 -87.8631 0z"
           id="path133" />
      </glyph>
      <glyph
         unicode="a"
         horiz-adv-x="556"
         id="glyph135">
        <path
           d="M404.337 63.9873c-32.6701,-27.6562 -63.9873,-47.1548 -93.9912,-58.655 -30.1632,-11.341 -62.5149,-16.9916 -97.0155,-16.9916 -56.9837,0 -100.676,13.8082 -131.317,41.6634 -30.5213,27.8154 -45.8416,63.5097 -45.8416,106.645 0,25.5074 5.65062,48.6669 17.31,69.6777 11.5002,21.0107 26.7012,37.8432 45.3641,50.4974 18.8221,12.694 39.8329,22.3239 63.3108,28.85 17.1906,4.49662 43.1755,8.99324 77.9944,13.1715 71.0306,8.47593 123.359,18.5038 156.864,30.3223 0.318345,12.0175 0.477517,19.6578 0.477517,22.8412 0,35.8138 -8.31675,61.162 -24.9901,75.6466 -22.3239,20.0159 -55.8297,29.8448 -100,29.8448 -41.345,0 -71.8265,-7.16275 -91.6832,-21.6872 -19.6578,-14.4847 -34.1425,-40.1512 -43.653,-76.9996l-85.8337 11.8583c7.83924,36.6494 20.6526,66.4942 38.5197,88.9773 17.8273,22.6821 43.8122,40.191 77.6363,52.3677 33.8639,12.1369 73.0203,18.3048 117.668,18.3048 44.3295,0 80.183,-5.33227 107.839,-15.6387 27.6562,-10.5054 47.9904,-23.5177 61.162,-39.3554 13.0123,-15.8376 22.0056,-35.6546 27.3378,-59.809 2.82531,-15.002 4.33745,-42.0215 4.33745,-81.0187l0 -117.151c0,-81.8544 1.83048,-133.506 5.65062,-155.034 3.70076,-21.6474 11.1819,-42.499 22.1647,-62.316l-91.8026 0c-8.99324,18.1854 -15.002,39.5145 -17.509,63.9873zm-7.32193 196.339c-32.0334,-13.1715 -79.8647,-24.1544 -143.534,-33.3068 -36.1321,-5.1731 -61.7986,-11.0227 -76.6415,-17.509 -15.002,-6.52606 -26.6614,-15.9968 -34.6598,-28.6908 -8.19737,-12.495 -12.3359,-26.3032 -12.3359,-41.6634 0,-23.4779 8.99324,-42.9765 26.6614,-58.655 17.6681,-15.5193 43.653,-23.3187 77.8353,-23.3187 33.8241,0 63.9873,7.32193 90.3303,22.1647 26.343,14.803 45.8416,35.1373 58.1775,60.8038 9.47075,19.8567 14.1663,49.1842 14.1663,87.8631l0 32.312z"
           id="path137" />
      </glyph>
      <glyph
         unicode="s"
         horiz-adv-x="500"
         id="glyph139">
        <path
           d="M30.8396 154.835l86.8285 13.649c4.81496,-34.8189 18.5038,-61.4803 40.8277,-80.1433 22.1647,-18.5038 53.3227,-27.8552 93.5137,-27.8552 40.3104,0 70.3144,8.35655 89.813,24.6717 19.4986,16.5141 29.3275,35.8536 29.3275,57.8591 0,19.9761 -8.6351,35.4954 -25.9849,46.9956 -12.0175,7.83924 -41.9817,17.6681 -89.813,29.6458 -64.3454,16.355 -109.192,30.3223 -134.023,42.3398 -24.8309,11.8185 -43.8122,28.3327 -56.6653,49.3434 -12.8134,21.0107 -19.3394,44.1703 -19.3394,69.4787 0,23.1994 5.33227,44.5285 15.9968,64.1862 10.5054,19.817 25.0298,36.1719 43.1755,49.1444 13.6888,10.0279 32.3518,18.7027 55.8297,25.6665 23.6769,7.00358 49.0251,10.5054 76.0048,10.5054 40.6685,0 76.3231,-6.00875 107.163,-17.6681 30.8396,-11.6594 53.5217,-27.497 68.1655,-47.4731 14.6836,-20.1751 24.6717,-46.8365 30.1632,-80.3422l-85.8337 -11.8583c-3.97931,26.7012 -15.3203,47.5129 -33.9833,62.5149 -18.663,15.002 -45.1651,22.5229 -79.3474,22.5229 -40.3104,0 -69.1604,-6.68524 -86.3112,-20.0159 -17.3498,-13.3307 -26.0247,-29.0092 -26.0247,-46.8365 0,-11.5002 3.66096,-21.6474 10.8635,-30.8396 7.16275,-9.51055 18.3048,-17.1508 33.6649,-23.4779 8.83406,-3.18345 34.6598,-10.6645 77.6363,-22.3637 62.1966,-16.6335 105.531,-30.1632 130.004,-40.8277 24.6717,-10.5054 44.0111,-25.9849 58.0183,-46.16 14.0072,-20.1751 20.971,-45.1651 20.971,-75.1691 0,-29.3275 -8.6351,-56.8245 -25.6665,-82.8094 -17.1508,-25.8655 -41.8225,-45.8416 -73.9753,-60.008 -32.1528,-14.1663 -68.6828,-21.1699 -109.351,-21.1699 -67.4891,0 -118.822,14.0072 -154.158,41.9817 -35.3363,28.0143 -57.8193,69.5185 -67.4891,124.513z"
           id="path141" />
      </glyph>
      <glyph
         unicode="v"
         horiz-adv-x="500"
         id="glyph143">
        <path
           d="M209.988 0l-197.334 518.504 92.8372 0 111.341 -310.505c12.0175,-33.5058 23.0004,-68.3247 33.1476,-104.497 7.83924,27.3378 18.7027,60.1671 32.6701,98.647l115.36 316.355 90.3303 0 -196.339 -518.504 -82.0135 0z"
           id="path145" />
      </glyph>
      <glyph
         unicode="x"
         horiz-adv-x="500"
         id="glyph147">
        <path
           d="M7.32193 0l189.495 269.519 -175.328 248.985 109.829 0 79.6657 -121.488c14.8428,-23.1994 27.0195,-42.499 36.0127,-58.1775 14.3255,21.4883 27.497,40.5094 39.6737,57.1429l87.3458 122.523 104.974 0 -179.148 -244.17 192.837 -274.333 -107.839 0 -106.486 161.162 -28.3725 43.4938 -136.132 -204.656 -106.526 0z"
           id="path149" />
      </glyph>
      <glyph
         unicode="r"
         horiz-adv-x="332"
         id="glyph151">
        <path
           d="M64.9821 0l0 518.504 79.029 0 0 -78.5117c20.1751,36.6892 38.838,61.0028 55.9889,72.6622 16.9916,11.6594 35.8138,17.6681 56.347,17.6681 29.6458,0 59.6498,-9.47075 90.3303,-28.3327l-30.3621 -81.6554c-21.3291,12.8134 -42.8173,19.1803 -64.3056,19.1803 -19.3394,0 -36.4903,-5.84958 -51.8504,-17.3498 -15.3203,-11.6594 -26.1441,-27.6562 -32.6701,-48.1496 -9.82889,-31.1978 -14.6439,-65.3402 -14.6439,-102.507l0 -271.508 -87.8631 0z"
           id="path153" />
      </glyph>
      <glyph
         unicode="t"
         horiz-adv-x="277"
         id="glyph155">
        <path
           d="M257.819 78.6709l12.694 -77.6761c-24.6717,-5.1731 -46.8365,-7.83924 -66.3351,-7.83924 -31.9936,0 -56.6653,5.01393 -74.3335,15.1612 -17.509,10.0279 -29.8448,23.3585 -37.0076,39.8329 -7.16275,16.355 -10.8237,51.0147 -10.8237,103.701l0 298.329 -64.5046 0 0 68.3247 64.5046 0 0 128.492 87.505 52.686 0 -181.178 88.3008 0 0 -68.3247 -88.3008 0 0 -303.183c0,-25.1492 1.47234,-41.146 4.49662,-48.3486 3.14365,-7.16275 8.15758,-12.8134 15.1612,-17.1508 7.00358,-4.17827 16.9916,-6.3271 30.004,-6.3271 9.82889,0 22.6423,1.154 38.6391,3.50179z"
           id="path157" />
      </glyph>
      <glyph
         unicode="u"
         horiz-adv-x="556"
         id="glyph159">
        <path
           d="M405.85 0l0 76.1639c-40.5094,-58.655 -95.3442,-87.8233 -164.664,-87.8233 -30.5213,0 -59.1723,5.80979 -85.6745,17.509 -26.5022,11.6594 -46.16,26.5022 -59.0131,44.1305 -13.0123,17.8671 -22.0056,39.5145 -27.1787,65.1811 -3.50179,17.3498 -5.33227,44.6876 -5.33227,82.1727l0 321.17 87.8631 0 0 -287.505c0,-46.0008 1.83048,-76.8404 5.33227,-92.8372 5.65062,-23.1596 17.31,-41.146 35.1373,-54.4767 18.0263,-13.1715 40.191,-19.6976 66.4942,-19.6976 26.343,0 51.0147,6.68524 74.1743,20.1751 23.1596,13.4899 39.5145,31.9936 49.0251,55.1532 9.66972,23.3585 14.4847,57.1827 14.4847,101.353l0 277.835 87.8233 0 0 -518.504 -78.4719 0z"
           id="path161" />
      </glyph>
      <glyph
         unicode="p"
         horiz-adv-x="556"
         id="glyph163">
        <path
           d="M66.0167 -198.647l0 717.151 79.9841 0 0 -67.3299c18.8221,26.343 40.1512,46.16 63.9873,59.3315 23.6769,13.1715 52.5269,19.817 86.351,19.817 44.3295,0 83.3267,-11.5002 117.151,-34.1425 34.0231,-22.8412 59.4906,-54.994 76.6813,-96.4982 17.31,-41.5042 25.9849,-87.0275 25.9849,-136.53 0,-53.0044 -9.47075,-100.836 -28.651,-143.335 -19.0211,-42.499 -46.6773,-74.9702 -83.0084,-97.6522 -36.3311,-22.4831 -74.4926,-33.8241 -114.485,-33.8241 -29.3275,0 -55.5113,6.16793 -78.8301,18.5038 -23.3585,12.3359 -42.3398,27.9745 -57.3418,46.8365l0 -252.328 -87.8233 0zm79.4668 454.994c0,-66.6932 13.5296,-115.997 40.5094,-148.03 27.0195,-31.8345 59.8488,-47.8313 98.1695,-47.8313 38.9972,0 72.503,16.5141 100.318,49.6618 27.8552,33.0283 41.8623,84.2021 41.8623,153.522 0,66.1759 -13.6888,115.48 -40.8277,148.508 -27.1787,32.8293 -59.6896,49.3036 -97.3339,49.3036 -37.5249,0 -70.6725,-17.4692 -99.5225,-52.4871 -28.8102,-34.9781 -43.1755,-85.9928 -43.1755,-152.646z"
           id="path165" />
      </glyph>
      <glyph
         unicode="  "
         horiz-adv-x="277"
         id="glyph167">
        <path
           d="M96.6574 0l0 518.504 87.8233 0 0 -518.504 -87.8233 0zm-4.49662 583.008l65.0219 136.649 115.161 0 -107.362 -136.649 -72.8213 0z"
           id="path169" />
      </glyph>
      <glyph
         unicode="  "
         horiz-adv-x="556"
         id="glyph171">
        <path
           d="M33.1476 259.331c0,96.0207 26.7012,167.171 80.183,213.331 44.4887,38.3207 98.846,57.6602 162.992,57.6602 71.349,0 129.686,-23.3187 174.851,-70.1552 45.3243,-46.6773 67.8074,-111.182 67.8074,-193.514 0,-66.8126 -9.98806,-119.339 -29.9642,-157.501 -20.0159,-38.3207 -49.1842,-67.9666 -87.3458,-89.1365 -38.3207,-21.1699 -80.0239,-31.6753 -125.348,-31.6753 -72.503,0 -131.158,23.1596 -176.005,69.8368 -44.807,46.4783 -67.1707,113.49 -67.1707,201.154zm90.3701 0c0,-66.4942 14.4847,-116.156 43.4938,-149.184 28.9694,-33.1476 65.4994,-49.6618 109.312,-49.6618 43.6928,0 80.0239,16.6733 108.993,49.8607 28.85,33.1476 43.3347,83.8042 43.3347,151.811 0,64.1862 -14.4847,112.853 -43.653,145.842 -29.1683,32.9885 -65.3402,49.5026 -108.675,49.5026 -43.8122,0 -80.3422,-16.5141 -109.312,-49.3434 -29.0092,-32.8293 -43.4938,-82.491 -43.4938,-148.826zm103.979 323.677l65.0219 136.649 115.161 0 -107.362 -136.649 -72.8213 0z"
           id="path173" />
      </glyph>
      <glyph
         unicode="  "
         horiz-adv-x="556"
         id="glyph175">
        <path
           d="M66.0167 0l0 518.504 78.9893 0 0 -73.657c38.1616,56.9837 93.1556,85.4755 164.982,85.4755 31.3569,0 60.008,-5.65062 86.1918,-16.8325 26.3032,-11.341 45.8018,-25.9849 58.8142,-44.3295 13.1715,-18.1456 22.1647,-39.8329 27.497,-64.8229 3.18345,-16.355 4.85476,-44.8468 4.85476,-85.5153l0 -318.822 -88.0223 0 0 315.519c0,35.6546 -3.34262,62.4751 -10.1472,80.3024 -6.84441,17.6681 -19.0211,31.8345 -36.3311,42.3398 -17.509,10.6645 -37.8432,15.9968 -61.3609,15.9968 -37.4851,0 -69.6379,-11.9777 -96.9757,-35.6546 -27.1787,-23.8361 -40.6685,-68.842 -40.6685,-135.336l0 -283.168 -87.8233 0zm61.9976 595.185c-0.358138,33.8241 8.83406,60.963 27.8154,81.1381 18.5038,20.1751 42.1807,30.1632 71.1898,30.1632 20.1353,0 47.6323,-8.6351 82.491,-26.3032 19.3394,-9.86868 34.5006,-14.6836 46.0008,-14.6836 10.3064,0 18.3048,2.82531 23.8361,8.51572 5.65062,5.80979 9.47075,16.9916 11.8185,33.9833l63.3506 0c-0.835655,-37.1667 -10.3462,-64.9821 -28.0143,-83.4859 -17.6681,-18.5038 -40.3502,-27.8552 -67.688,-27.8552 -20.4934,0 -47.4731,9.1922 -80.9789,27.3378 -21.8464,11.6594 -37.8432,17.6681 -47.8313,17.6681 -11.1819,0 -20.0159,-3.97931 -26.8205,-11.8185 -7.20255,-7.83924 -10.6645,-19.3394 -10.3462,-34.6598l-64.8229 0z"
           id="path177" />
      </glyph>
    </font>
</defs>
</svg>
