<svg xmlns="http://www.w3.org/2000/svg">
<defs>
<font
   id="FontID1"
   font-variant="normal"
   fill-rule="nonzero"
   font-style="normal"
   font-weight="400">
	<font-face
   font-family="Swis721 BT"
   id="font-face7">
	</font-face>
   <missing-glyph
   id="missing-glyph9"><path
     d="M0 0z"
     id="path11" /></missing-glyph>
   <glyph
   unicode="/"
   horiz-adv-x="300"
   id="glyph13"><path
     d="M-1.00054 -92.6644l241.166 830.504 61.5071 0 -242.676 -830.504 -59.9975 0z"
     id="path15" /></glyph>
   <glyph
   unicode="."
   horiz-adv-x="274"
   id="glyph17"><path
     d="M86.8367 0l0 108.831 100.16 0 0 -108.831 -100.16 0z"
     id="path19" /></glyph>
   <glyph
   unicode="-"
   horiz-adv-x="311"
   id="glyph21"><path
     d="M35.1595 225.175l0 79.1659 241.675 0 0 -79.1659 -241.675 0z"
     id="path23" /></glyph>
   <glyph
   unicode=","
   horiz-adv-x="274"
   id="glyph25"><path
     d="M86.8367 0l0 107.831 100.16 0 0 -116.66c0,-36.8446 -8.67138,-67.1769 -26.1546,-91.3304 -17.3428,-24.0131 -42.0053,-40.0042 -74.0052,-47.833l0 49.8341c15.6576,3.15961 27.8221,12.1645 36.3356,26.6636 8.65383,14.4991 12.9895,33.1584 12.9895,56.3289l0 15.1661 -49.3251 0z"
     id="path27" /></glyph>
   <glyph
   unicode="+"
   horiz-adv-x="832"
   id="glyph29"><path
     d="M451.175 596.166l0 -264.161 257.824 0 0 -67.8439 -257.824 0 0 -264.161 -69.336 0 0 264.161 -257.842 0 0 67.8439 257.842 0 0 264.161 69.336 0z"
     id="path31" /></glyph>
   <glyph
   unicode="*"
   horiz-adv-x="499"
   id="glyph33"><path
     d="M249.504 463.673l-85.1691 -123.014 -68.0019 45.516 95.9996 119.486 -139.163 38.1787 24.9961 77.1648 134.161 -45.8319 0 143.991 75.1812 0 0 -143.991 132.318 45.8319 26.8392 -77.1648 -140.164 -38.1787 96.3331 -118.661 -66.6678 -49.3251 -86.6612 125.998z"
     id="path35" /></glyph>
   <glyph
   unicode=")"
   horiz-adv-x="336"
   id="glyph37"><path
     d="M75.3392 -207.007l-63.1747 0c46.0075,78.8323 80.4999,156.506 103.161,233.337 22.679,76.8313 34.0009,154.33 34.0009,232.495 0,78.5164 -11.3219,156.173 -34.0009,233.004 -22.6614,76.8313 -57.1539,154.505 -103.161,233.337l63.1747 0c55.4863,-74.1631 96.4911,-149.327 122.997,-225.333 26.5056,-76.0062 39.8287,-156.331 39.8287,-241.008 0,-84.3266 -13.323,-164.493 -39.8287,-240.499 -26.5056,-75.9887 -67.5104,-151.152 -122.997,-225.333z"
     id="path39" /></glyph>
   <glyph
   unicode="("
   horiz-adv-x="336"
   id="glyph41"><path
     d="M261.16 -207.007c-55.6619,74.5142 -96.6666,149.836 -123.155,226.176 -26.5056,76.1642 -39.8462,155.997 -39.8462,239.657 0,84.0106 13.3406,164.001 39.8462,240.341 26.4881,76.1642 67.4928,151.503 123.155,226l62.9992 0c-46.1655,-78.8323 -80.6579,-156.506 -103.161,-233.337 -22.6614,-76.8313 -34.0009,-154.488 -34.0009,-233.004 0,-78.1653 11.3395,-155.664 34.0009,-232.495 22.5035,-76.8313 56.9959,-154.505 103.161,-233.337l-62.9992 0z"
     id="path43" /></glyph>
   <glyph
   unicode="'"
   horiz-adv-x="154"
   id="glyph45"><path
     d="M111.833 701.171l0 -271.007 -67.8264 0 0 271.007 67.8264 0z"
     id="path47" /></glyph>
   <glyph
   unicode="&amp;"
   horiz-adv-x="683"
   id="glyph49"><path
     d="M304.165 445.839c34.1765,21.1694 59.3305,42.8303 75.4972,65.0003 16.1667,21.9944 24.171,45.8319 24.171,71.1615 0,25.5051 -7.82882,46.0075 -23.662,61.5071 -15.8332,15.6576 -36.5111,23.4865 -62.3321,23.4865 -28.3312,0 -50.5011,-7.65329 -66.6678,-22.995 -16.1667,-15.1661 -24.171,-36.16 -24.171,-62.9992 0,-19.5018 6.16125,-40.0042 18.3258,-61.6651 12.1821,-21.6609 31.8419,-46.1655 58.839,-73.4961zm-34.1589 -90.8389c-44.3399,-25.3296 -76.0062,-50.3256 -95.1746,-75.0057 -19.1683,-24.487 -28.8402,-52.3267 -28.8402,-83.168 0,-37.4941 12.5156,-68.4934 37.6696,-93.1559 25.0136,-24.5046 57.0135,-36.8446 96.1751,-36.8446 29.3317,0 57.3294,7.00381 83.993,21.0114 26.6636,13.9901 52.0107,34.668 76.1642,61.9986l-169.987 205.164zm-47.833 59.1725c-27.6817,29.4897 -48.0086,57.4874 -60.8401,83.993 -12.8315,26.3301 -19.3263,52.9937 -19.3263,80.0084 0,46.8325 15.9912,85.3271 48.1665,115.484 31.9999,30.1743 73.3206,45.1825 123.822,45.1825 52.6778,0 94.5075,-13.8321 125.507,-41.3383 30.8238,-27.5062 46.3234,-64.6667 46.3234,-111.499 0,-38.1611 -10.8305,-72.4956 -32.4914,-103.337 -21.6609,-30.6658 -55.6619,-59.664 -102.336,-86.6612l134.828 -164.177c8.5134,15.0082 15.0082,32.3334 19.8353,51.8352 4.66921,19.5018 7.84637,42.0053 9.51395,67.3349l84.4845 0c-0.333515,-35.1595 -4.98517,-68.3354 -14.1656,-99.6682 -9.16288,-31.1573 -22.6614,-60.9981 -40.4957,-89.3293l134.161 -162 -120.153 0 -70.1785 86.8367c-28.9982,-34.51 -61.9986,-60.5066 -99.0012,-77.8318 -36.827,-17.5007 -77.4983,-26.1721 -121.821,-26.1721 -63.5082,0 -115.168,19.5018 -155.014,58.6635 -39.8287,39.0037 -59.822,88.8378 -59.822,149.344 0,45.6564 13.1651,85.8186 39.3372,120.662 26.1546,34.826 69.3184,69.0024 129.667,102.67z"
     id="path51" /></glyph>
   <glyph
   unicode="%"
   horiz-adv-x="845"
   id="glyph53"><path
     d="M536.994 173.831c0,-28.3312 9.67193,-52.1687 28.8402,-71.6706 19.1683,-19.3263 43.0058,-28.9982 71.337,-28.9982 27.3307,0 50.8347,9.82991 70.3365,29.5073 19.4843,19.8353 29.3317,43.4973 29.3317,71.1615 0,27.9977 -9.67193,51.6772 -28.9982,71.1615 -19.5018,19.3439 -43.0058,29.0158 -70.67,29.0158 -27.9977,0 -51.6772,-9.67193 -71.1791,-29.0158 -19.3263,-19.4843 -28.9982,-43.1638 -28.9982,-71.1615zm-73.1626 0c0,48.5001 16.6757,89.5048 50.1676,122.997 33.3339,33.5095 74.3387,50.3432 122.663,50.3432 47.3415,0 88.1708,-17.0093 122.172,-50.8347 34.1589,-33.843 51.1682,-74.6722 51.1682,-122.505 0,-47.833 -17.0093,-88.8378 -50.8347,-122.839 -34.0009,-34.0009 -74.8302,-50.9926 -122.505,-50.9926 -48.3245,0 -89.3293,16.8337 -122.663,50.5011 -33.4919,33.6674 -50.1676,74.8302 -50.1676,123.33zm-355.492 331.83c0,-28.4892 9.65437,-52.3267 28.8227,-71.653 19.1683,-19.1683 42.8303,-28.8402 71.1791,-28.8402 27.4886,0 51.1506,9.82991 70.6525,29.3317 19.5018,19.6598 29.1738,43.3394 29.1738,71.1615 0,27.9977 -9.67193,51.8352 -29.1738,71.1791 -19.5018,19.5018 -43.1638,29.1562 -70.6525,29.1562 -28.0152,0 -51.6772,-9.65437 -71.0035,-29.1562 -19.3439,-19.3439 -28.9982,-43.1814 -28.9982,-71.1791zm-73.1802 0.175534c0,48.5001 16.6757,89.5048 50.1676,122.997 33.3339,33.4919 74.3387,50.3256 123.014,50.3256 47.833,0 88.6623,-16.9917 122.33,-50.8171 33.8254,-33.843 50.6591,-74.6722 50.6591,-122.505 0,-47.833 -16.8337,-88.8378 -50.6591,-122.839 -33.6674,-34.0009 -74.4967,-50.9926 -122.33,-50.9926 -48.6756,0 -89.6804,16.8337 -123.014,50.5011 -33.4919,33.6674 -50.1676,74.8302 -50.1676,123.33zm143.341 -525.83l428.338 719.163 61.1561 0 -428.83 -719.163 -60.6646 0z"
     id="path55" /></glyph>
   <glyph
   unicode="$"
   horiz-adv-x="548"
   id="glyph57"><path
     d="M298.829 54.1698c41.0048,3.82664 72.6711,16.6582 94.8411,38.1611 22.17,21.5029 33.1584,50.1676 33.1584,85.8362 0,31.9999 -9.98789,57.505 -29.9988,76.8313 -19.9933,19.1683 -52.6602,34.1765 -98.0007,44.8314l0 -245.66zm-50.8347 345.837l0 219.154c-35.493,0 -63.6662,-9.98789 -84.6601,-29.8232 -20.9939,-19.8353 -31.5084,-46.341 -31.5084,-79.4994 0,-30.9993 9.51395,-55.3459 28.3488,-73.1802 18.8173,-17.9922 48.1665,-30.1568 87.8197,-36.6515zm0 -508.838l0 89.8383c-72.1621,5.49422 -126.49,26.4881 -162.825,62.9992 -36.1776,36.4935 -54.3278,88.4867 -54.3278,156.331l0 10.6549 86.4856 0 0 -7.82882c0,-43.6553 11.3395,-78.1653 34.1765,-103.495 22.6614,-25.5051 54.8368,-39.3372 96.4911,-41.6718l0 254.998c-67.3349,11.164 -117.994,32.5089 -151.995,64.3332 -34.0009,31.6663 -50.9926,73.5137 -50.9926,125.665 0,56.0129 18.1678,101.336 54.6613,136.004 36.4935,34.668 85.8362,53.5028 148.326,56.8379l0 68.3354 50.8347 0 0 -68.3354c64.8423,-5.1607 114.501,-23.8375 148.835,-55.6619 34.3345,-31.8419 51.8352,-75.3392 52.5022,-130.334l-86.8367 0c-3.82664,34.1589 -15.3241,60.3311 -34.4924,78.3233 -19.0103,18.0098 -45.674,27.9977 -80.0084,29.9988l0 -226c81.3425,-17.8343 138.338,-42.1633 170.672,-72.4956 32.4914,-30.4903 48.658,-74.0052 48.658,-130.668 0,-58.839 -18.8173,-106.339 -56.6624,-141.99 -37.8276,-35.8441 -91.9974,-57.505 -162.667,-65.0003l0 -90.8389 -50.8347 0z"
     id="path59" /></glyph>
   <glyph
   unicode="#"
   horiz-adv-x="768"
   id="glyph61"><path
     d="M473.17 419l-126.841 0 -45.4984 -129 127.508 0 44.8314 129zm-21.9944 292.826l-79.0079 -220.997 124.998 0 80.0084 220.997 80.1664 0 -78.1653 -220.997 146.992 0 -24.8381 -71.8285 -147.993 0 -45.4984 -127.999 157.331 0 -24.9961 -71.8285 -157.173 0 -79.1659 -221.173 -80.4999 0 78.6744 221.173 -126.016 0 -79.1659 -221.173 -80.4999 0 77.4983 221.173 -150.819 0 25.8211 71.8285 151.503 0 44.8314 127.999 -161.158 0 24.9961 71.8285 162 0 79.1659 220.997 81.009 0z"
     id="path63" /></glyph>
   <glyph
   unicode="&quot;"
   horiz-adv-x="299"
   id="glyph65"><path
     d="M255.841 701.171l0 -271.007 -67.8439 0 0 271.007 67.8439 0zm-144.008 0l0 -271.007 -67.8264 0 0 271.007 67.8264 0z"
     id="path67" /></glyph>
   <glyph
   unicode="!"
   horiz-adv-x="320"
   id="glyph69"><path
     d="M134.828 173.831l-23.9955 310.994 0 234.338 98.1762 0 0 -234.338 -23.0125 -310.994 -51.1682 0zm-23.9955 -173.831l0 107.006 98.1762 0 0 -107.006 -98.1762 0z"
     id="path71" /></glyph>
   <glyph
   unicode=" "
   horiz-adv-x="274"
   id="glyph73" />
   <glyph
   unicode="?"
   horiz-adv-x="524"
   id="glyph75"><path
     d="M202.163 193c0,2.3346 -0.157981,5.82773 -0.491495,10.4969 -0.333515,4.66921 -0.509049,8.16233 -0.509049,10.4969 0,35.8441 6.00326,67.6684 18.0098,95.3325 12.1645,27.8397 31.9999,55.5039 59.664,82.8345l38.0031 38.0031c19.8353,19.6774 34.0009,38.6702 42.4968,57.1714 8.49585,18.5013 12.656,39.3372 12.656,62.4901 0,32.8424 -10.6549,59.3481 -31.9999,79.3414 -21.3274,19.9933 -49.3251,29.9988 -84.151,29.9988 -42.8479,0 -75.3392,-13.1651 -97.3336,-39.3372 -22.012,-26.1546 -33.843,-65.8253 -35.8441,-118.837l-86.5032 0 0 13.1826c0,70.986 19.5018,125.998 58.681,164.984 38.9861,39.1792 93.9985,58.681 164.984,58.681 62.5077,0 112.5,-17.1672 149.836,-51.5017 37.5116,-34.3345 56.1709,-79.8329 56.1709,-136.513 0,-30.8238 -6.00326,-59.664 -17.9922,-86.1521 -12.1821,-26.5056 -30.3323,-51.3437 -54.8368,-74.5142l-41.0048 -38.9861c-25.3296,-24.0131 -42.1633,-45.3404 -50.5011,-63.9997 -8.33787,-18.5013 -12.498,-41.3383 -12.498,-68.3354 0,-6.51231 0.175534,-11.4975 0.333515,-15.0082 0.175534,-3.66866 0.333515,-6.67029 0.667029,-9.32086l-87.8372 -0.509049zm-3.00163 -193l0 107.006 97.6672 0 0 -107.006 -97.6672 0z"
     id="path77" /></glyph>
   <glyph
   unicode="&gt;"
   horiz-adv-x="832"
   id="glyph79"><path
     d="M703.997 330.162l0 -62.9992 -575.155 -236.322 0 75.1637 474.153 191.999 -474.153 193.333 0 74.6546 575.155 -235.83z"
     id="path81" /></glyph>
   <glyph
   unicode="="
   horiz-adv-x="832"
   id="glyph83"><path
     d="M709 234.829l0 -67.8264 -585.002 0 0 67.8264 585.002 0zm0 194.334l0 -68.3354 -585.002 0 0 68.3354 585.002 0z"
     id="path85" /></glyph>
   <glyph
   unicode="&lt;"
   horiz-adv-x="832"
   id="glyph87"><path
     d="M703.997 491.337l-473.17 -193.333 473.17 -191.999 0 -75.1637 -575.155 236.322 0 62.9992 575.155 235.83 0 -74.6546z"
     id="path89" /></glyph>
   <glyph
   unicode=";"
   horiz-adv-x="296"
   id="glyph91"><path
     d="M98.1586 415.173l0 107.831 101.002 0 0 -107.831 -101.002 0zm0 -415.173l0 107.831 101.002 0 0 -116.66c0,-36.5111 -8.82936,-66.6678 -26.3301,-90.8389 -17.5007,-23.9955 -42.4968,-40.1622 -74.6722,-48.3245l0 49.8341c15.4997,3.15961 27.8397,12.1645 36.5111,26.8216 8.82936,14.6746 13.1651,33.3339 13.1651,56.1709l0 15.1661 -49.6761 0z"
     id="path93" /></glyph>
   <glyph
   unicode=":"
   horiz-adv-x="296"
   id="glyph95"><path
     d="M98.1586 415.173l0 107.831 101.002 0 0 -107.831 -101.002 0zm0 -415.173l0 108.831 101.002 0 0 -108.831 -101.002 0z"
     id="path97" /></glyph>
   <glyph
   unicode="9"
   horiz-adv-x="548"
   id="glyph99"><path
     d="M125.998 466.675c0,-44.849 12.34,-80.6755 36.827,-107.515 24.6801,-26.8216 57.347,-40.3202 98.3342,-40.3202 45.3404,0 81.009,13.323 107.006,39.8287 25.9966,26.5056 39.0037,62.8236 39.0037,109.007 0,46.499 -12.8315,83.6595 -38.4946,111.166 -25.6806,27.4886 -60.1731,41.1627 -103.512,41.1627 -41.9877,0 -75.6552,-14.0076 -101.16,-42.0053 -25.3296,-27.9977 -38.0031,-65.0003 -38.0031,-111.324zm-90.8389 -294.845l91.8394 0c1.00054,-34.4924 12.498,-61.6651 34.668,-81.3249 22.17,-19.6774 52.1687,-29.5073 90.3298,-29.5073 50.6767,0 89.6628,20.8359 116.677,62.3321 26.9971,41.4963 42.8303,104.671 47.324,189.665 -19.5018,-25.154 -43.3394,-44.1644 -71.495,-57.3294 -28.1732,-13.1651 -59.664,-19.8353 -94.5075,-19.8353 -66.0008,0 -119.504,21.0114 -160.157,63.1747 -40.6712,42.1633 -60.9981,97.8251 -60.9981,166.828 0,69.6695 21.4854,125.998 64.6667,168.829 43.1638,43.0058 100.002,64.5088 170.654,64.5088 81.167,0 143.341,-28.1732 186.838,-84.5021 43.4973,-56.3289 65.1582,-137.496 65.1582,-243.676 0,-125.489 -22.995,-222.156 -68.8269,-289.666 -45.9899,-67.4928 -111.324,-101.318 -196.335,-101.318 -66.0008,0 -118.503,17.3252 -157.156,51.9932 -38.8457,34.668 -58.3475,81.3249 -58.681,139.83z"
     id="path101" /></glyph>
   <glyph
   unicode="8"
   horiz-adv-x="548"
   id="glyph103"><path
     d="M131.826 201.162c0,-42.6548 12.6736,-76.1642 38.1787,-100.493 25.3296,-24.5046 59.9975,-36.6691 104.004,-36.6691 44.1644,0 79.1659,12.34 104.653,36.827 25.5051,24.5046 38.3366,58.014 38.3366,100.335 0,39.3372 -12.8315,70.512 -38.3366,93.507 -25.4875,22.837 -60.489,34.3345 -104.653,34.3345 -44.3399,0 -79.1834,-11.3395 -104.337,-34.1765 -25.1716,-22.8194 -37.8451,-53.9943 -37.8451,-93.665zm21.1694 311.011c0,-33.1759 11.006,-59.8396 33.1759,-80.0084 22.17,-20.1689 51.3262,-30.3323 87.8372,-30.3323 36.4935,0 65.6497,10.1634 87.8197,30.3323 22.17,20.1689 33.1759,46.8325 33.1759,80.0084 0,33.4919 -10.6725,59.822 -31.9999,78.6568 -21.3449,18.8348 -51.0102,28.3312 -88.9958,28.3312 -37.6696,0 -67.3349,-9.49639 -88.8378,-28.3312 -21.5029,-18.8348 -32.1754,-45.1649 -32.1754,-78.6568zm-2.00109 -138.18c-30.8238,14.0076 -53.9943,33.0004 -69.1604,57.1714 -15.1661,23.9955 -22.6614,53.6608 -22.6614,88.8378 0,53.3272 19.6598,96.4911 58.997,129.667 39.4952,33.0004 91.3304,49.5006 155.839,49.5006 64.6667,0 116.993,-16.6757 156.664,-49.8341 39.6531,-33.1759 59.4885,-76.3398 59.4885,-129.333 0,-35.177 -7.65329,-64.8423 -22.995,-88.8378 -15.1661,-24.171 -38.3366,-43.1638 -69.1604,-57.1714 38.3191,-14.9906 67.3349,-37.1606 86.8191,-66.6678 19.5018,-29.4897 29.3493,-65.4918 29.3493,-108.164 0,-66.6678 -21.6785,-119.82 -65.1758,-159.666 -43.4973,-39.6531 -101.827,-59.4885 -174.99,-59.4885 -73.3381,0 -131.335,19.8353 -174.34,59.4885 -43.0058,39.8462 -64.5088,92.9979 -64.5088,159.666 0,42.6723 9.84746,78.6744 29.3493,108.164 19.4843,29.5073 48.3245,51.6772 86.4856,66.6678z"
     id="path105" /></glyph>
   <glyph
   unicode="7"
   horiz-adv-x="548"
   id="glyph107"><path
     d="M134.67 0c14.6571,111.008 45.3229,214.836 92.3309,311.661 46.8325,96.8421 111.166,188.998 192.824,276.168l-379.821 0 0 91.3304 475.996 0 0 -82.9925c-78.8323,-85.3271 -141.34,-177.5 -187.839,-276.659 -46.3234,-99.0012 -76.8313,-205.515 -91.4884,-319.507l-102.003 0z"
     id="path109" /></glyph>
   <glyph
   unicode="6"
   horiz-adv-x="548"
   id="glyph111"><path
     d="M422.826 211.992c0,45.1825 -12.498,81.3425 -37.3185,108.34 -24.8381,26.9971 -57.6805,40.4957 -98.3342,40.4957 -45.674,0 -81.3425,-13.323 -107.181,-39.9867 -25.9966,-26.6812 -38.8281,-63.3327 -38.8281,-109.849 0,-46.499 12.8315,-83.484 38.8281,-110.832 25.8386,-27.3307 60.5066,-40.9872 104.179,-40.9872 41.6542,0 75.1637,13.9901 100.669,41.9877 25.3296,27.9977 37.9856,64.8423 37.9856,110.832zm91.3479 294.845l-92.3485 0c-3.31759,36.4935 -15.4997,64.1577 -36.6515,82.9925 -21.1694,18.8348 -50.5011,28.3312 -88.3463,28.3312 -50.6591,0 -89.6628,-20.8359 -116.66,-62.4901 -26.9971,-41.6718 -42.8303,-104.829 -47.3415,-189.507 19.8353,25.1716 43.6729,44.1644 71.5126,57.1714 27.8221,12.9895 58.997,19.5018 93.4894,19.5018 66.5099,0 120.013,-21.0114 160.842,-63.1747 40.8292,-42.1633 61.3316,-97.8251 61.3316,-166.828 0,-69.336 -21.6609,-125.507 -65.1758,-168.337 -43.4973,-43.0058 -100.318,-64.4912 -170.654,-64.4912 -81.009,0 -143.166,28.1557 -186.347,84.6601 -43.1638,56.5044 -64.6667,137.671 -64.6667,243.501 0,124.664 23.0125,220.997 68.8445,288.999 45.9899,68.0019 110.499,102.003 193.825,102.003 65.8428,0 117.503,-16.6757 155.348,-50.0097 37.8276,-33.3339 58.8215,-80.8334 62.9992,-142.323z"
     id="path113" /></glyph>
   <glyph
   unicode="5"
   horiz-adv-x="548"
   id="glyph115"><path
     d="M26.8392 181.169l92.3309 0c5.49422,-36.16 20.5024,-64.3332 45.1649,-84.6601 24.5046,-20.3444 55.6619,-30.5078 93.507,-30.5078 46.499,0 83.993,14.1656 112.5,42.4968 28.4892,28.3312 42.6548,65.5093 42.6548,111.833 0,47.4995 -13.8321,85.1691 -41.4963,113.009 -27.6642,27.8221 -65.1582,41.6542 -112.675,41.6542 -26.8216,0 -51.1506,-5.31868 -73.4961,-16.1667 -22.3279,-10.6549 -41.8298,-26.6636 -58.33,-47.833l-80.1664 0 55.1704 368.165 369.991 0 0 -81.992 -303.99 0 -27.8397 -186.996c17.1672,14.6571 37.1781,25.6631 59.8396,33.3339 22.5035,7.67084 47.166,11.4975 73.8296,11.4975 71.337,0 128.508,-20.9939 171.339,-62.9992 42.9883,-42.0053 64.4912,-97.6672 64.4912,-167.003 0,-73.1626 -22.837,-132.335 -68.3354,-177.325 -45.4984,-45.1825 -105.32,-67.6684 -179.168,-67.6684 -65.8253,0 -119.995,18.3258 -162.825,54.9948 -42.8303,36.4935 -67.0014,85.3271 -72.4956,146.167z"
     id="path117" /></glyph>
   <glyph
   unicode="4"
   horiz-adv-x="548"
   id="glyph119"><path
     d="M108.831 251.839l220.172 0 0 311.169 -220.172 -311.169zm220.172 -251.839l0 171.83 -304.165 0 0 87.8372 303.165 419.491 90.8389 0 0 -427.32 99.1592 0 0 -80.0084 -99.1592 0 0 -171.83 -89.8383 0z"
     id="path121" /></glyph>
   <glyph
   unicode="3"
   horiz-adv-x="548"
   id="glyph123"><path
     d="M22.995 217.838l90.8389 0c1.33406,-49.1671 14.8326,-87.1702 40.4957,-113.834 25.6631,-26.6636 61.9986,-40.0042 108.831,-40.0042 45.674,0 81.5005,12.1645 107.673,36.6691 26.1721,24.329 39.3372,57.8385 39.3372,100.493 0,39.0037 -12.8315,69.336 -38.5122,90.8389 -25.8211,21.5029 -61.8231,32.1578 -108.498,32.1578 -9.32086,0 -24.9961,-0.667029 -46.8325,-1.98353l-3.33515 -0.509049 0.509049 79.1659c4.16016,-0.333515 8.49585,-0.667029 12.8315,-0.82501 4.49367,-0.175534 10.0054,-0.175534 16.8337,-0.175534 50.1676,0 86.3277,8.49585 108.498,25.6631 22.17,17.0093 33.1759,44.4979 33.1759,82.343 0,35.1595 -10.5145,62.1566 -31.6663,80.9914 -21.1694,18.8348 -51.5017,28.3312 -90.8389,28.3312 -44.3399,0 -77.8318,-12.498 -100.335,-37.3185 -22.6614,-25.0136 -34.0009,-61.8407 -34.0009,-110.674l-88.8378 0 0 4.82719c0,68.6689 19.6774,123.506 58.997,164.177 39.5127,40.6537 92.3485,60.9981 158.683,60.9981 70.986,0 126.156,-16.5002 165.318,-49.3426 39.1792,-32.8249 58.839,-78.8323 58.839,-137.654 0,-33.843 -7.33732,-62.6657 -21.9944,-86.1697 -14.6746,-23.662 -36.3356,-41.6718 -64.8423,-54.0118 37.0026,-13.6566 65.0003,-34.826 84.1686,-63.6662 19.0103,-28.8227 28.5067,-64.4912 28.5067,-107.164 0,-67.0014 -22.679,-120.662 -67.8439,-160.824 -45.3229,-40.1797 -105.987,-60.3311 -182.152,-60.3311 -71.337,0 -127.999,20.9939 -170.338,63.1572 -42.3388,42.1633 -63.5082,98.8432 -63.5082,169.829l0 4.84474z"
     id="path125" /></glyph>
   <glyph
   unicode="2"
   horiz-adv-x="548"
   id="glyph127"><path
     d="M30.6658 0l0 5.82773c0,67.3349 16.3422,124.173 49.0091,170.18 32.8249,45.9899 89.8208,91.3304 171.163,135.986l59.155 32.1754c35.177,19.1683 60.8401,40.8292 77.3403,65.0003 16.5002,23.9955 24.6625,51.9932 24.6625,83.993 0,37.0026 -12.498,66.8434 -37.6696,89.3293 -24.9961,22.5035 -58.4879,33.6674 -100.493,33.6674 -42.6723,0 -76.0062,-14.3236 -100.335,-42.9883 -24.171,-28.6647 -36.3356,-68.0019 -36.3356,-118.17l0 -8.33787 -91.3304 0 0 12.1645c0,74.3387 20.8359,132.844 62.5077,175.832 41.6542,43.0058 98.1586,64.5088 169.32,64.5088 69.0024,0 124.506,-19.0103 166.336,-57.1714 41.8298,-38.0031 62.6657,-87.9952 62.6657,-149.836 0,-48.1665 -12.1645,-90.1543 -36.6691,-125.665 -24.329,-35.6685 -61.9986,-66.8258 -113.167,-93.4894l-58.997 -29.8408c-53.5028,-27.9977 -92.4889,-53.9943 -117.503,-77.8318 -24.8205,-23.9955 -41.3207,-50.3432 -49.5006,-79.3414l375.836 0 0 -85.9941 -475.996 0z"
     id="path129" /></glyph>
   <glyph
   unicode="1"
   horiz-adv-x="548"
   id="glyph131"><path
     d="M255.841 0l0 494.163 -161.667 0 0 70.828c58.6635,0.667029 102.652,11.673 132.318,33.1759 29.6828,21.5029 47.008,55.1704 52.3443,101.002l68.3354 0 0 -699.17 -91.3304 0z"
     id="path133" /></glyph>
   <glyph
   unicode="0"
   horiz-adv-x="548"
   id="glyph135"><path
     d="M129.825 338.833c0,-96.3331 11.515,-166.494 34.668,-210.658 23.1705,-44.1819 59.6816,-66.1763 109.516,-66.1763 49.9921,0 86.6612,21.8364 109.498,65.6673 22.995,43.8309 34.4924,114.167 34.4924,211.167 0,97.3336 -11.4975,168.004 -34.4924,212.168 -22.837,44.1644 -59.506,66.1588 -109.498,66.1588 -49.8341,0 -86.3452,-22.1524 -109.516,-66.6678 -23.1529,-44.3224 -34.668,-114.992 -34.668,-211.659zm-95.6661 0c0,117.836 20.3444,207.341 61.0156,268.497 40.6537,61.1736 100.318,91.8394 178.834,91.8394 78.6568,0 138.654,-30.5078 179.659,-91.5059 41.0048,-60.9981 61.5071,-150.661 61.5071,-268.83 0,-117.503 -20.5024,-206.674 -61.3492,-267.496 -40.8292,-60.8401 -100.827,-91.3304 -179.817,-91.3304 -78.5164,0 -138.18,30.4903 -178.834,91.3304 -40.6712,60.8226 -61.0156,149.994 -61.0156,267.496z"
     id="path137" /></glyph>
   <glyph
   unicode="O"
   horiz-adv-x="772"
   id="glyph139"><path
     d="M146.834 359.002c0,-92.1729 21.1694,-164.177 63.6662,-216.17 42.4968,-51.8352 101.494,-77.8318 176.657,-77.8318 74.8477,0 133.336,25.9966 175.517,77.8318 42.1633,51.9932 63.3327,123.997 63.3327,216.17 0,92.3309 -21.1694,164.493 -63.3327,216.17 -42.1808,51.8352 -100.669,77.6563 -175.517,77.6563 -75.1637,0 -134.161,-25.8211 -176.657,-77.6563 -42.4968,-51.6772 -63.6662,-123.839 -63.6662,-216.17zm-101.002 0c0,118.661 30.1743,211.659 90.5054,278.502 60.489,66.8258 143.991,100.335 250.821,100.335 106.514,0 189.682,-33.3339 249.68,-100.177 60.1555,-66.6678 90.1543,-159.666 90.1543,-278.66 0,-118.837 -29.9988,-211.835 -90.1543,-278.66 -59.9975,-66.8434 -143.166,-100.335 -249.68,-100.335 -106.83,0 -190.332,33.4919 -250.821,100.335 -60.3311,66.8258 -90.5054,159.824 -90.5054,278.66z"
     id="path141" /></glyph>
   <glyph
   unicode="N"
   horiz-adv-x="721"
   id="glyph143"><path
     d="M76.1642 0l0 719.163 107.006 0 335.832 -522.337c7.4953,-11.4975 13.9901,-22.1524 19.5018,-32.3334 5.49422,-9.98789 9.82991,-19.4843 13.1651,-28.3312l0 583.001 93.3315 0 0 -719.163 -106.005 0 -343.169 529.674c-5.1607,8.16233 -9.98789,16.6582 -14.3236,25.4875 -4.49367,8.67138 -8.67138,18.0098 -12.498,27.8397l0 -583.001 -92.84 0z"
     id="path145" /></glyph>
   <glyph
   unicode="M"
   horiz-adv-x="829"
   id="glyph147"><path
     d="M167.003 612.667l0 -612.667 -89.8383 0 0 719.163 139.672 0 178.167 -550.159c5.1607,-15.6752 8.98734,-27.8397 11.3219,-36.5111 2.51014,-8.49585 4.33569,-16.1667 5.66975,-22.6614 2.66812,12.0065 5.17825,22.837 7.82882,32.1754 2.66812,9.49639 5.33624,18.5013 8.33787,26.9971l184.679 550.159 139.988 0 0 -719.163 -94.6655 0 0 612.667c-2.3346,-10.339 -4.82719,-20.8359 -7.82882,-31.5084 -2.84365,-10.4969 -6.00326,-20.9939 -9.33841,-31.3328l-184.995 -549.825 -92.3309 0 -180.502 549.825c-3.33515,9.0049 -6.16125,18.8348 -8.82936,29.1738 -2.66812,10.4969 -5.00272,21.6609 -7.33732,33.6674z"
     id="path149" /></glyph>
   <glyph
   unicode="L"
   horiz-adv-x="535"
   id="glyph151"><path
     d="M77.1648 0l0 719.163 98.6677 0 0 -628.324 358.335 0 0 -90.8389 -457.003 0z"
     id="path153" /></glyph>
   <glyph
   unicode="K"
   horiz-adv-x="638"
   id="glyph155"><path
     d="M77.1648 0l0 719.163 96.6666 0 0 -347.171 346.171 347.171 129.825 0 -293.826 -287.999 302.164 -431.164 -121.171 0 -251.821 360.828 -111.341 -108.831 0 -251.997 -96.6666 0z"
     id="path157" /></glyph>
   <glyph
   unicode="J"
   horiz-adv-x="504"
   id="glyph159"><path
     d="M18.9928 233.004l93.8405 0c-0.333515,-3.51068 -0.667029,-7.33732 -0.82501,-11.4975 -0.175534,-4.00218 -0.175534,-10.181 -0.175534,-18.3433 0,-47.4995 9.0049,-81.834 26.8392,-103.161 17.8343,-21.3274 46.657,-31.9999 86.3277,-31.9999 24.8381,0 45.3404,4.33569 61.5071,13.1651 16.3247,8.82936 29.1562,22.5035 38.6526,41.0048 4.17771,8.82936 7.17934,21.1694 9.0049,36.827 1.84311,15.8332 2.66812,42.4968 2.66812,79.8329l0 480.331 98.1762 0 0 -519.827c0,-74.3387 -17.0093,-129.176 -50.8347,-164.844 -33.843,-35.651 -86.1697,-53.4852 -157.173,-53.4852 -69.6695,0 -121.996,18.3258 -156.84,55.1528 -34.826,36.8446 -52.1687,92.1729 -52.1687,166.003 0,8.16233 0,14.4991 0.175534,18.8348 0.157981,4.51123 0.491495,8.49585 0.82501,12.0065z"
     id="path161" /></glyph>
   <glyph
   unicode="I"
   horiz-adv-x="256"
   id="glyph163"><path
     d="M79.1659 0l0 719.163 97.6672 0 0 -719.163 -97.6672 0z"
     id="path165" /></glyph>
   <glyph
   unicode="H"
   horiz-adv-x="723"
   id="glyph167"><path
     d="M77.1648 0l0 719.163 97.6672 0 0 -295.494 373.01 0 0 295.494 98.1586 0 0 -719.163 -98.1586 0 0 336.832 -373.01 0 0 -336.832 -97.6672 0z"
     id="path169" /></glyph>
   <glyph
   unicode="G"
   horiz-adv-x="764"
   id="glyph171"><path
     d="M615.159 96.1751c-29.3317,-38.6702 -64.1577,-67.8439 -104.495,-87.1702 -40.3377,-19.3439 -86.1697,-28.9982 -137.671,-28.9982 -97.3336,0 -176.166,34.826 -236.655,104.32 -60.3311,69.5115 -90.5054,160.666 -90.5054,273.675 0,117.503 31.3328,210.167 93.8405,277.993 62.4901,67.8439 147.168,101.845 254.331,101.845 81.992,0 148.993,-20.8359 200.671,-62.3321 51.8177,-41.5138 82.817,-99.3347 93.3315,-173.515l-95.1746 0c-8.82936,48.5001 -30.4903,86.0117 -65.1582,112.342 -34.668,26.3301 -79.3414,39.4952 -133.669,39.4952 -78.4988,0 -139.339,-25.4875 -182.503,-76.4977 -43.1638,-50.8347 -64.6667,-122.663 -64.6667,-215.503 0,-91.8219 21.3274,-163.668 63.9997,-215.328 42.6723,-51.8352 101.336,-77.6738 176.324,-77.6738 67.6684,0 121.68,20.6779 162.176,61.9986 40.3377,41.3383 60.5066,97.0001 60.5066,167.003l0 9.33841 -225.175 0 0 80.9914 315.505 0 0 -388.158 -63.9997 0 -21.0114 96.1751z"
     id="path173" /></glyph>
   <glyph
   unicode="F"
   horiz-adv-x="583"
   id="glyph175"><path
     d="M77.1648 0l0 719.163 482.842 0 0 -90.3298 -385.174 0 0 -215.837 336.341 0 0 -87.8372 -336.341 0 0 -325.159 -97.6672 0z"
     id="path177" /></glyph>
   <glyph
   unicode="E"
   horiz-adv-x="639"
   id="glyph179"><path
     d="M77.1648 0l0 719.163 512.665 0 0 -89.3293 -415.998 0 0 -214.836 384.332 0 0 -83.993 -384.332 0 0 -241.166 424.336 0 0 -89.8383 -521.003 0z"
     id="path181" /></glyph>
   <glyph
   unicode="D"
   horiz-adv-x="706"
   id="glyph183"><path
     d="M342.836 636.171l-168.004 0 0 -548.333 168.004 0c71.8285,0 126.156,23.3285 163.001,70.003 36.827,46.8325 55.1704,115.835 55.1704,207.323 0,87.5037 -18.6768,154.663 -56.1709,201.162 -37.3361,46.5165 -91.5059,69.845 -162,69.845zm-265.671 -636.171l0 719.163 273.833 0c100.335,0 177.167,-29.9988 230.336,-89.8383 53.1693,-59.822 79.8329,-146.325 79.8329,-259.316 0,-116.835 -27.6642,-207.674 -82.8345,-272.675 -55.1704,-64.8423 -132.16,-97.3336 -231.161,-97.3336l-270.006 0z"
     id="path185" /></glyph>
   <glyph
   unicode="C"
   horiz-adv-x="712"
   id="glyph187"><path
     d="M580 267.163l94.6655 0c-4.16016,-87.5037 -34.1589,-157.331 -89.6628,-209.324 -55.3283,-51.8352 -127.174,-77.8318 -214.994,-77.8318 -101.178,0 -180.502,34.4924 -238.007,103.495 -57.505,69.0024 -86.1697,164.493 -86.1697,286.665 0,112.675 30.1743,202.005 90.3298,268.339 60.1731,66.1588 141.498,99.3347 243.676,99.3347 81.3249,0 147.993,-21.0114 199.828,-62.9992 51.9932,-42.0053 81.992,-99.3347 90.1718,-171.848l-95.6661 0c-9.18043,47.4995 -30.8413,84.1686 -65.0003,109.674 -34.1765,25.5051 -78.4988,38.3366 -133.178,38.3366 -72.9871,0 -129.491,-25.5051 -169.654,-76.6733 -40.1797,-51.1682 -60.3486,-123.155 -60.3486,-216.328 0,-87.8372 20.8359,-158.332 62.6832,-211.343 41.8298,-53.1517 97.3336,-79.6574 166.319,-79.6574 58.839,0 107.181,18.3258 144.675,54.9948 37.6696,36.5111 57.6629,85.0111 60.3311,145.167z"
     id="path189" /></glyph>
   <glyph
   unicode="B"
   horiz-adv-x="662"
   id="glyph191"><path
     d="M77.1648 0l0 719.163 290 0c74.4967,0 130.51,-14.6571 167.828,-43.9888 37.1781,-29.3493 55.8374,-73.0046 55.8374,-131.335 0,-37.5116 -8.67138,-69.336 -25.8386,-95.5081 -17.3252,-26.1721 -42.9883,-46.3234 -77.1648,-60.3311 43.3394,-8.00435 77.0068,-27.3307 101.002,-57.8385 24.171,-30.3323 36.1776,-68.8269 36.1776,-115.326 0,-65.8428 -21.8364,-118.012 -65.5093,-156.664 -43.4973,-38.8457 -102.828,-58.172 -177.658,-58.172l-304.674 0zm97.6672 416.841l171.339 0c50.5011,0 87.6617,9.16288 111.324,27.3307 23.8375,18.3258 35.6685,46.8325 35.6685,85.5026 0,36.4935 -11.3219,63.4907 -34.1589,81.167 -22.837,17.5007 -57.8385,26.3301 -105.004,26.3301l-179.168 0 0 -220.33zm0 -330.004l198.16 0c49.8341,0 87.5037,10.9884 113.342,33.0004 25.6631,21.9944 38.4946,53.8363 38.4946,95.824 0,41.6718 -13.1651,72.3376 -39.3372,91.8394 -26.1546,19.5018 -67.3173,29.3317 -123.664,29.3317l-186.996 0 0 -249.996z"
     id="path193" /></glyph>
   <glyph
   unicode="A"
   horiz-adv-x="637"
   id="glyph195"><path
     d="M205.006 298.829l224.157 0 -111.324 317.33 -112.833 -317.33zm-208.008 -298.829l267.163 719.163 107.831 0 268.005 -719.163 -106.005 0 -76.1642 214.836 -282.996 0 -76.6733 -214.836 -101.16 0z"
     id="path197" /></glyph>
   <glyph
   unicode="@"
   horiz-adv-x="999"
   id="glyph199"><path
     d="M627.008 416.999l27.8221 56.1709 64.5088 0 -71.337 -281.328c-1.17608,-5.17825 -2.17662,-10.181 -2.84365,-15.0082 -0.649476,-5.00272 -0.982991,-9.49639 -0.982991,-13.8321 0,-14.8326 4.16016,-26.3301 12.498,-34.1589 8.16233,-7.67084 20.3268,-11.673 36.3356,-11.673 15.6576,0 32.3334,4.33569 49.9921,12.9895 17.8343,8.5134 35.0015,20.8359 51.9932,36.8446 26.0141,24.6625 46.341,55.1704 60.9981,90.9969 14.6746,36.002 22.012,74.0052 22.012,114.167 0,84.3266 -30.9993,152.662 -92.9979,205.006 -61.9986,52.4847 -143.341,78.6568 -243.834,78.6568 -43.3394,0 -83.3436,-4.49367 -120.171,-13.6566 -36.827,-9.18043 -71.1615,-23.1705 -103.003,-42.0053 -62.1566,-37.1606 -110.323,-85.8362 -144.5,-146.167 -34.1589,-60.5066 -51.3262,-127.174 -51.3262,-200.004 0,-57.6629 9.98789,-107.831 29.9988,-150.327 19.9933,-42.6723 51.3262,-80.1664 93.9985,-112.342 32.4914,-25.154 71.0035,-44.3224 115.501,-57.8209 44.4979,-13.5161 91.1548,-20.3444 140.322,-20.3444 55.0124,0 108.515,8.00435 160.508,23.9955 51.8352,15.8332 99.4927,38.8457 142.832,68.8445l26.8392 -40.1622c-48.1665,-36.002 -99.5103,-63.3327 -153.68,-81.5005 -54.1523,-18.1678 -110.99,-27.3482 -170.654,-27.3482 -61.8407,0 -118.503,7.67084 -169.829,23.0125 -51.5017,15.1661 -97.0001,38.0031 -136.846,68.3354 -49.9921,38.3191 -87.5037,82.9925 -112.166,133.827 -24.8205,50.6591 -37.1606,108.34 -37.1606,172.831 0,53.6608 8.49585,104.495 25.3296,152.662 17.0093,48.3421 41.4963,92.015 73.8296,131.51 47.4995,57.8209 104.671,101.827 171.672,131.668 66.8258,29.9988 141.007,44.9894 222.331,44.9894 52.9937,0 103.495,-7.31977 151.328,-21.9944 47.833,-14.6746 89.1713,-35.335 123.681,-61.9986 42.3213,-32.5089 74.3211,-70.161 96.3331,-112.833 21.9944,-42.4968 33.0004,-88.6623 33.0004,-138.163 0,-56.8379 -10.339,-108.164 -30.9993,-153.68 -20.6779,-45.6564 -50.6767,-83.993 -90.1718,-115.326 -21.9944,-17.5007 -46.341,-30.9993 -73.0046,-40.4957 -26.5056,-9.49639 -53.5028,-14.1656 -81.167,-14.1656 -32.3334,0 -56.6624,6.49476 -73.0046,19.3263 -16.5002,12.8315 -24.6625,31.8419 -24.6625,57.3294l0 9.18043c-17.9922,-28.8402 -39.0037,-50.3432 -62.9992,-64.1753 -24.171,-13.8321 -52.1687,-20.6604 -83.993,-20.6604 -49.8341,0 -87.8372,13.8321 -114.009,41.4963 -26.1546,27.6642 -39.3372,67.8264 -39.3372,120.504 0,76.4977 22.5035,140.655 67.3349,192.333 45.0069,51.8352 100.177,77.6563 165.511,77.6563 27.6642,0 51.5017,-6.16125 71.1615,-18.3258 19.6598,-12.1645 35.335,-30.5078 47.008,-54.8368zm-45.8495 -184.995l28.8402 115.168c-5.49422,28.6647 -16.6582,50.8347 -33.4919,66.3343 -16.6757,15.6576 -37.8451,23.4865 -63.1747,23.4865 -45.0069,0 -82.659,-21.1519 -113.325,-63.4907 -30.5078,-42.3388 -45.8319,-94.174 -45.8319,-155.664 0,-34.1765 7.82882,-60.6646 23.662,-79.1659 15.8332,-18.5013 38.1611,-27.8397 67.1593,-27.8397 31.5084,0 59.9975,11.164 85.1691,33.6674 25.1716,22.5035 42.1633,51.6597 50.9926,87.5037z"
     id="path201" /></glyph>
   <glyph
   unicode="_"
   horiz-adv-x="499"
   id="glyph203"><path
     d="M499.991 -166.003l0 -69.8275 -499.991 0 0 69.8275 499.991 0z"
     id="path205" /></glyph>
   <glyph
   unicode="^"
   horiz-adv-x="999"
   id="glyph207"><path
     d="M544.84 711.826l248.995 -271.99 -87.8372 0 -206.165 205.164 -207.007 -205.164 -87.8197 0 248.995 271.99 90.8389 0z"
     id="path209" /></glyph>
   <glyph
   unicode="]"
   horiz-adv-x="353"
   id="glyph211"><path
     d="M233.004 719.163l0 -918.991 -194.843 0 0 67.8264 107.006 0 0 783.338 -107.006 0 0 67.8264 194.843 0z"
     id="path213" /></glyph>
   <glyph
   unicode="\"
   horiz-adv-x="300"
   id="glyph215"><path
     d="M240.166 -92.6644l-241.166 830.504 59.9975 0 242.676 -830.504 -61.5071 0z"
     id="path217" /></glyph>
   <glyph
   unicode="["
   horiz-adv-x="353"
   id="glyph219"><path
     d="M121.171 -199.828l0 918.991 194.825 0 0 -67.8264 -106.988 0 0 -783.338 106.988 0 0 -67.8264 -194.825 0z"
     id="path221" /></glyph>
   <glyph
   unicode="Z"
   horiz-adv-x="598"
   id="glyph223"><path
     d="M27.8397 0l0 80.9914 439.836 552.669 -410.504 0 0 85.5026 523.829 0 0 -90.3298 -431.164 -540.996 431.164 0 0 -87.8372 -553.16 0z"
     id="path225" /></glyph>
   <glyph
   unicode="Y"
   horiz-adv-x="602"
   id="glyph227"><path
     d="M355.825 0l-98.1586 0 0 287.999 -266.496 431.164 122.488 0 192.35 -340.325 190.999 340.325 114.659 0 -255.841 -424.336 0 -294.827z"
     id="path229" /></glyph>
   <glyph
   unicode="X"
   horiz-adv-x="604"
   id="glyph231"><path
     d="M0 0l246.994 368.165 -233.829 350.998 119.662 0 171.339 -266.162 173.831 266.162 113.834 0 -233.829 -349.155 246.994 -370.008 -120.171 0 -184.995 291 -180.66 -291 -119.17 0z"
     id="path233" /></glyph>
   <glyph
   unicode="W"
   horiz-adv-x="903"
   id="glyph235"><path
     d="M191.841 0l-187.014 719.163 95.1746 0 146.992 -575.155 152.012 575.155 101.985 0 157.173 -571.17 148.993 571.17 92.84 0 -190.999 -719.163 -96.1576 0 -163.668 592.673 -157.173 -592.673 -100.16 0z"
     id="path237" /></glyph>
   <glyph
   unicode="V"
   horiz-adv-x="610"
   id="glyph239"><path
     d="M255.841 0l-255.841 719.163 101.002 0 206.99 -601.994 200.846 601.994 102.003 0 -253.015 -719.163 -101.985 0z"
     id="path241" /></glyph>
   <glyph
   unicode="U"
   horiz-adv-x="708"
   id="glyph243"><path
     d="M73.1626 272.833l0 446.33 97.6672 0 0 -447.331c0,-67.3349 14.8326,-117.169 44.6734,-149.327 29.8232,-32.1754 75.9887,-48.3421 138.496,-48.3421 61.8407,0 107.831,16.3422 138.338,49.0091 30.4903,32.8249 45.6564,82.3255 45.6564,148.66l0 447.331 98.1762 0 0 -446.33c0,-96.3331 -24.8381,-169.162 -74.4967,-218.663 -49.6761,-49.5006 -122.681,-74.1631 -219.014,-74.1631 -89.8208,0 -157.156,24.329 -202.163,73.1626 -44.8314,48.8336 -67.3349,122.172 -67.3349,219.663z"
     id="path245" /></glyph>
   <glyph
   unicode="T"
   horiz-adv-x="570"
   id="glyph247"><path
     d="M235.83 0l0 631.835 -227.001 0 0 87.3282 552.178 0 0 -87.3282 -227.001 0 0 -631.835 -98.1762 0z"
     id="path249" /></glyph>
   <glyph
   unicode="S"
   horiz-adv-x="646"
   id="glyph251"><path
     d="M43.8309 236.831l94.174 0c1.00054,-51.9932 18.3258,-93.4894 51.9932,-124.489 33.6674,-30.8413 78.6744,-46.341 135.003,-46.341 55.8374,0 99.6682,11.673 131.668,35.1595 32.1578,23.346 48.1665,55.3459 48.1665,95.6661 0,55.0124 -60.1731,96.8421 -180.677,125.507 -7.16179,1.49204 -12.656,2.8261 -16.6582,3.82664 -97.6672,23.1705 -162.176,49.0091 -193.509,77.4983 -31.4908,28.3488 -47.166,68.8445 -47.166,121.347 0,63.9997 23.504,115.501 70.3365,154.488 46.8325,38.8457 109.165,58.3475 186.996,58.3475 79.4994,0 142.007,-20.5024 187.505,-61.3316 45.4984,-40.8468 68.6689,-96.8421 69.336,-168.179l-93.3315 -0.491495c-3.33515,48.1665 -19.6774,85.1691 -49.0091,110.832 -29.4897,25.8386 -69.8275,38.6702 -120.82,38.6702 -47.833,0 -86.0117,-10.5145 -114.676,-31.5084 -28.6647,-20.9939 -42.9883,-48.9916 -42.9883,-83.8351 0,-55.6619 59.155,-97.1581 177.658,-124.489 17.5007,-4.17771 30.9993,-7.51286 40.4957,-9.84746l10.339 -2.3346c77.3403,-18.6593 128.824,-38.6526 154.172,-60.1555 19.3263,-16.1667 34.0009,-36.002 43.9888,-59.1725 10.1634,-23.3285 15.1661,-49.3251 15.1661,-77.9898 0,-69.336 -24.8205,-124.506 -74.4967,-165.511 -49.6586,-41.0048 -116.835,-61.4896 -201.338,-61.4896 -87.3282,0 -155.33,21.9944 -203.988,66.1588 -48.6756,44.1644 -74.8302,107.339 -78.3409,189.665z"
     id="path253" /></glyph>
   <glyph
   unicode="R"
   horiz-adv-x="663"
   id="glyph255"><path
     d="M172.831 634.661l0 -243.659 167.003 0c60.3311,0 102.828,9.82991 127.841,29.3317 24.8205,19.5018 37.3185,51.9932 37.3185,97.6672 0,42.6723 -11.6555,72.6711 -35.1595,90.3298 -23.504,17.5007 -66.8258,26.3301 -130.001,26.3301l-167.003 0zm-95.6661 84.5021l278.836 0c45.1649,0 78.4988,-2.00109 99.8262,-5.82773 21.3449,-4.00218 40.5133,-10.4969 57.347,-19.5018 30.3323,-16.6582 53.3272,-39.8287 69.1604,-69.336 15.8332,-29.6653 23.662,-64.4912 23.662,-104.495 0,-38.8281 -8.33787,-72.0041 -24.8381,-99.5103 -16.6582,-27.4886 -41.3207,-48.9916 -74.1631,-64.6667 27.8397,-7.82882 47.833,-20.9939 59.664,-39.4952 11.8485,-18.5013 19.1683,-49.9921 22.17,-94.1565l8.33787 -118.679c1.66757,-25.3296 5.00272,-44.3224 10.0054,-56.8204 5.1607,-12.5156 12.656,-21.5029 22.8194,-26.6812l0 -19.9933 -112.833 0c-9.16288,15.0082 -15.4997,47.008 -18.9928,96.1751l0 2.98408 -6.00326 93.6825c-3.33515,48.1665 -13.4986,79.3238 -30.8238,93.665 -17.1672,14.3236 -60.3311,21.4854 -129.333,21.4854l-158.174 0 0 -307.992 -96.6666 0 0 719.163z"
     id="path257" /></glyph>
   <glyph
   unicode="Q"
   horiz-adv-x="772"
   id="glyph259"><path
     d="M492.162 87.9952l-79.1659 65.8428 47.833 60.9981 96.3331 -78.4988c22.5035,24.329 39.5127,55.6619 51.3437,93.665 11.6555,38.1611 17.5007,80.9914 17.5007,128.824 0,92.5065 -21.1694,164.669 -63.3327,216.346 -42.1808,51.8352 -100.669,77.6563 -175.517,77.6563 -75.1637,0 -134.161,-25.8211 -176.657,-77.6563 -42.4968,-51.6772 -63.6662,-123.839 -63.6662,-216.17 0,-92.1729 21.1694,-164.177 63.6662,-216.17 42.4968,-51.8352 101.494,-77.8318 176.657,-77.8318 19.8353,0 38.3366,1.82555 55.6794,5.66975 17.3252,3.66866 33.6674,9.49639 49.3251,17.3252zm78.6744 -61.9986c-27.9977,-15.3241 -57.1714,-26.8216 -87.5037,-34.4924 -30.1743,-7.67084 -62.3321,-11.4975 -96.1751,-11.4975 -106.83,0 -190.332,33.4919 -250.663,100.335 -60.489,66.8258 -90.6633,159.824 -90.6633,278.66 0,118.661 30.1743,211.659 90.5054,278.502 60.489,66.8258 143.991,100.335 250.821,100.335 105.847,0 188.84,-33.6674 249.346,-100.844 60.3311,-67.1593 90.4878,-159.824 90.4878,-277.993 0,-58.33 -7.65329,-110.674 -22.995,-156.998 -15.1661,-46.499 -38.6702,-88.3463 -70.161,-125.84l86.3277 -72.3376 -48.3245 -60.9981 -101.002 83.168z"
     id="path261" /></glyph>
   <glyph
   unicode="P"
   horiz-adv-x="629"
   id="glyph263"><path
     d="M174.832 390.002l164.001 0c56.9959,0 96.8246,9.16288 119.328,27.3307 22.679,18.3258 34.0009,49.5006 34.0009,93.8405 0,42.6548 -11.164,73.3206 -33.6674,91.8219 -22.5035,18.5013 -59.822,27.8397 -112.324,27.8397l-171.339 0 0 -240.833zm-97.6672 -390.002l0 719.163 264.67 0c43.0058,0 75.6727,-2.15907 98.1586,-6.33678 22.3455,-4.16016 42.5143,-11.164 59.9975,-20.9939 29.3493,-15.9912 51.8352,-39.4952 67.3349,-70.828 15.6752,-31.1748 23.504,-67.8439 23.504,-109.832 0,-40.0042 -7.82882,-75.3392 -23.504,-106.005 -15.4997,-30.5078 -38.3191,-54.9948 -68.3179,-73.1626 -17.1672,-10.4969 -37.5116,-17.8343 -60.8401,-22.17 -23.1705,-4.49367 -61.5071,-6.67029 -115.01,-6.67029l-148.326 0 0 -303.165 -97.6672 0z"
     id="path265" /></glyph>
   <glyph
   unicode="o"
   horiz-adv-x="581"
   id="glyph267"><path
     d="M129.825 262.16c0,-64.8247 14.0076,-114.325 41.8473,-148.66 27.8221,-34.3345 67.4928,-51.5017 119.328,-51.5017 51.3262,0 90.8389,17.1672 118.17,51.5017 27.3307,34.3345 41.0048,83.8351 41.0048,148.66 0,64.5088 -13.6741,113.834 -41.0048,148.168 -27.3307,34.3345 -66.8434,51.5017 -118.17,51.5017 -52.1687,0 -91.9974,-17.1672 -119.662,-51.3262 -27.6642,-34.1765 -41.5138,-83.5016 -41.5138,-148.344zm-89.8208 0c0,87.5037 21.8364,155.839 65.6673,204.673 43.8309,48.8336 105.162,73.1626 184.328,73.1626 79.4994,0 141.164,-24.329 184.995,-72.9871 44.0064,-48.6756 66.0008,-117.011 66.0008,-204.848 0,-87.8197 -21.8364,-156.331 -65.6673,-205.164 -43.8309,-48.8336 -105.162,-73.1626 -184.328,-73.1626 -79.4994,0 -141.164,24.329 -184.995,73.0046 -44.0064,48.658 -66.0008,117.169 -66.0008,205.322z"
     id="path269" /></glyph>
   <glyph
   unicode="n"
   horiz-adv-x="568"
   id="glyph271"><path
     d="M414.998 0l0 321.842c0,51.3262 -7.82882,86.9947 -23.662,106.654 -15.8332,19.6774 -43.0058,29.5073 -81.3425,29.5073 -49.1671,0 -87.3282,-13.8321 -114.501,-41.6718 -27.1551,-27.8397 -40.8292,-67.3349 -40.8292,-118.503l0 -297.829 -87.8372 0 0 523.004 84.0106 0 0 -76.1642c20.1689,30.1568 43.9888,52.6602 71.6706,67.3349 27.6642,14.6571 59.822,21.9944 96.3331,21.9944 39.3196,0 72.4956,-6.00326 99.4927,-17.8343 26.9971,-11.831 47.833,-29.6653 62.5077,-53.5028 8.16233,-12.6736 13.9901,-27.5062 17.6587,-44.6734 3.49313,-16.9917 5.33624,-44.1644 5.33624,-81.3249l0 -24.8381 0 -313.995 -88.8378 0z"
     id="path273" /></glyph>
   <glyph
   unicode="m"
   horiz-adv-x="857"
   id="glyph275"><path
     d="M703.997 0l0 321.842c0,52.6602 -7.16179,88.6623 -21.5029,108.164 -14.3236,19.3263 -39.1616,28.9982 -74.6546,28.9982 -42.3388,0 -75.1812,-13.1651 -98.6677,-39.3372 -23.504,-26.1721 -35.177,-62.9992 -35.177,-110.499l0 -309.168 -89.3293 0 0 321.842c0,52.6602 -7.16179,88.6623 -21.5029,108.164 -14.3236,19.3263 -39.0037,28.9982 -74.1631,28.9982 -42.0053,0 -75.0057,-13.3406 -98.6677,-39.8287 -23.8375,-26.5056 -35.6685,-63.1747 -35.6685,-110.007l0 -309.168 -87.8372 0 0 523.004 84.0106 0 0 -73.8296c19.5018,29.3317 42.4968,51.1506 69.336,65.4918 26.6636,14.3411 57.8209,21.5029 93.665,21.5029 32.4914,0 60.3311,-6.67029 83.5016,-19.8353 23.1529,-13.1651 42.9883,-33.8254 59.4885,-62.1742 22.837,28.3488 47.833,49.0091 74.8477,62.1742 26.9971,13.1651 57.9965,19.8353 93.1559,19.8353 33.843,0 63.3327,-6.16125 88.3287,-18.3433 25.1716,-12.1645 44.3399,-29.8232 57.6805,-52.9937 7.4953,-13.323 12.8315,-29.3317 16.1667,-47.833 3.15961,-18.5013 4.82719,-47.833 4.82719,-87.8372l0 -15.1661 0 -313.995 -87.8372 0z"
     id="path277" /></glyph>
   <glyph
   unicode="l"
   horiz-adv-x="226"
   id="glyph279"><path
     d="M67.8264 0l0 719.163 89.3468 0 0 -719.163 -89.3468 0z"
     id="path281" /></glyph>
   <glyph
   unicode="k"
   horiz-adv-x="517"
   id="glyph283"><path
     d="M66.8258 0l0 719.163 87.8372 0 0 -430.989 236.339 234.829 110.99 0 -195.984 -190.999 193 -332.005 -99.1767 0 -152.838 271.007 -92.3309 -88.8378 0 -182.169 -87.8372 0z"
     id="path285" /></glyph>
   <glyph
   unicode="j"
   horiz-adv-x="230"
   id="glyph287"><path
     d="M73.3381 617.16l0 102.003 87.8372 0 0 -102.003 -87.8372 0zm-85.5026 -833.822l0.491495 80.4999c3.8442,-0.333515 7.84637,-0.667029 11.673,-0.842563 4.00218,-0.157981 9.67193,-0.157981 17.1672,-0.157981 22.5035,0 37.4941,4.00218 45.0069,11.989 7.4953,8.00435 11.164,27.3482 11.164,58.3475l0 589.83 87.8372 0 0 -602.012c0,-51.4841 -10.181,-87.6617 -30.3498,-108.656 -20.1513,-21.0114 -54.4858,-31.5084 -102.986,-31.5084 -7.17934,0.333515 -18.5013,1.00054 -34.1765,2.00109 -2.49258,0 -4.49367,0.175534 -5.82773,0.509049z"
     id="path289" /></glyph>
   <glyph
   unicode="i"
   horiz-adv-x="222"
   id="glyph291"><path
     d="M66.8258 619.161l0 100.177 87.8372 0 0 -100.177 -87.8372 0zm0 -619.161l0 523.004 87.8372 0 0 -523.004 -87.8372 0z"
     id="path293" /></glyph>
   <glyph
   unicode="h"
   horiz-adv-x="568"
   id="glyph295"><path
     d="M414.998 0l0 321.842c0,51.6597 -7.82882,87.3282 -23.662,106.83 -15.8332,19.5018 -43.0058,29.3317 -81.3425,29.3317 -47.4995,0 -85.3271,-13.4986 -113.325,-40.3377 -27.9977,-26.8392 -42.0053,-62.9992 -42.0053,-108.673l0 -308.993 -87.8372 0 0 719.163 87.8372 0 0 -269.989c16.0087,28.3312 38.0031,49.9921 66.0008,64.8247 27.9977,14.8326 60.6646,22.17 98.1762,22.17 39.3196,0 72.4956,-6.00326 99.4927,-17.8343 26.9971,-11.831 47.833,-29.6653 62.5077,-53.5028 8.16233,-12.6736 13.9901,-27.5062 17.6587,-44.6734 3.49313,-16.9917 5.33624,-44.1644 5.33624,-81.3249l0 -24.8381 0 -313.995 -88.8378 0z"
     id="path297" /></glyph>
   <glyph
   unicode="g"
   horiz-adv-x="595"
   id="glyph299"><path
     d="M288.174 460.83c-49.5006,0 -87.6793,-17.1672 -114.343,-51.6597 -26.6636,-34.51 -40.0042,-83.8351 -40.0042,-148.01 0,-62.8236 13.6741,-111.657 41.0048,-146.659 27.3307,-35.0015 65.5093,-52.5022 114.343,-52.5022 53.3272,0 92.8224,16.0087 118.328,48.1665 25.5051,31.9999 38.3366,81.167 38.3366,147.677 0,66.9838 -13.3406,117.485 -39.8462,151.661 -26.4881,34.1589 -65.8253,51.3262 -117.818,51.3262zm154.663 -396.83c-20.5024,-27.1727 -44.4979,-47.3415 -72.0041,-60.8401 -27.5062,-13.4986 -58.839,-20.3268 -93.9985,-20.3268 -70.67,0 -127.332,25.6631 -170.338,76.8313 -42.9883,51.3437 -64.4912,119.17 -64.4912,203.497 0,83.3436 21.5029,150.345 64.6667,200.846 43.1638,50.6591 100.16,75.9887 171.163,75.9887 34.4924,0 64.8247,-6.67029 91.1724,-19.8353 26.1546,-13.1651 50.4836,-34.1589 72.9871,-63.1572l0 66.0008 85.8362 0 0 -511.84c0,-80.6579 -19.1683,-139.005 -57.6629,-174.99 -38.3366,-36.002 -100.335,-54.0118 -185.996,-54.0118 -69.336,0 -123.506,13.4986 -162.509,40.4957 -39.1616,27.0147 -58.6635,64.5088 -58.6635,112.342l0 3.82664 85.9941 0 0 -2.00109c0,-26.9971 11.515,-47.166 34.51,-60.6646 22.837,-13.4986 57.505,-20.3268 103.67,-20.3268 55.3283,0 95.157,10.6725 119.328,31.8243 24.329,21.1694 36.3356,56.0129 36.3356,104.513l0 71.8285z"
     id="path301" /></glyph>
   <glyph
   unicode="f"
   horiz-adv-x="264"
   id="glyph303"><path
     d="M85.9941 0l0 453.159 -85.9941 0 0 69.845 85.9941 0 0 77.1648c0,43.3394 9.84746,75.6727 29.5073,97.3336 19.6598,21.6609 49.1671,32.4914 88.6623,32.4914 6.16125,0 14.0076,-0.491495 23.3285,-1.49204 9.51395,-1.00054 23.346,-2.66812 41.5138,-5.33624l0 -78.9903c-9.51395,1.49204 -17.3428,2.8261 -23.6795,3.65111 -6.31923,0.842563 -11.4975,1.17608 -15.3241,1.17608 -20.5024,0 -34.8435,-5.66975 -43.0058,-17.1672 -8.16233,-11.3395 -12.1645,-33.0004 -12.1645,-64.8423l0 -43.9888 94.174 0 0 -69.845 -94.174 0 0 -453.159 -88.8378 0z"
     id="path305" /></glyph>
   <glyph
   unicode="e"
   horiz-adv-x="546"
   id="glyph307"><path
     d="M133.827 308.993l286.998 0c-0.333515,48.8336 -12.656,86.5032 -37.1606,113.009 -24.329,26.5056 -58.997,39.8287 -103.828,39.8287 -43.3394,0 -77.4983,-12.9895 -102.336,-39.0037 -24.8381,-26.1546 -39.4952,-63.9997 -43.6729,-113.834zm285.173 -139.988l86.8367 0c-9.49639,-57.6629 -34.51,-103.179 -75.1637,-136.337 -40.6712,-33.1584 -91.9974,-49.8341 -153.838,-49.8341 -72.4956,0 -129.843,24.329 -171.83,73.1626 -42.0053,48.8336 -62.9992,115.501 -62.9992,199.846 0,89.1538 20.8359,158.823 62.4901,208.991 41.6718,50.1676 99.1767,75.1637 172.339,75.1637 75.1637,0 133.336,-23.1705 174.498,-69.336 41.1627,-46.1655 61.8407,-111.499 61.8407,-195.826 0,-10.6725 0,-18.6593 -0.175534,-23.8375 -0.157981,-5.1607 -0.667029,-10.3214 -1.33406,-15.1661l-377.328 0c1.00054,-54.9948 14.6571,-97.6672 41.0048,-127.824 26.3301,-30.1743 62.9992,-45.1649 109.832,-45.1649 35.8265,0 65.3338,9.16288 88.6623,27.6642 23.3285,18.3258 38.3366,44.4979 45.1649,78.4988z"
     id="path309" /></glyph>
   <glyph
   unicode="d"
   horiz-adv-x="594"
   id="glyph311"><path
     d="M441.837 265.004c0,64.8247 -13.1651,113.658 -39.3372,146.501 -26.1721,32.8249 -65.0003,49.3251 -116.326,49.3251 -49.5006,0 -87.8372,-17.9922 -114.834,-53.9943 -26.9971,-35.8441 -40.5133,-86.9947 -40.5133,-152.995 0,-59.506 13.8496,-106.339 41.6718,-140.515 27.8397,-34.1589 66.0008,-51.3262 114.501,-51.3262 49.1671,0 87.3282,17.5007 114.343,52.6602 26.9971,35.177 40.4957,85.3447 40.4957,150.345zm81.992 454.159l0 -719.163 -84.9936 0 0 65.8253c-22.3279,-27.3307 -47.833,-47.833 -76.1642,-61.4896 -28.1732,-13.6741 -59.506,-20.5024 -93.665,-20.5024 -69.6695,0 -125.173,24.9961 -166.67,75.0057 -41.4963,49.9921 -62.3321,116.835 -62.3321,200.829 0,85.6606 20.8359,153.838 62.4901,204.339 41.6718,50.6591 97.1757,75.9887 166.512,75.9887 36.4935,0 68.8269,-6.82828 96.8246,-20.3268 28.1732,-13.4986 52.5022,-33.6674 73.0046,-60.8401l0 260.335 84.9936 0z"
     id="path313" /></glyph>
   <glyph
   unicode="c"
   horiz-adv-x="524"
   id="glyph315"><path
     d="M413.997 348.997c-2.66812,35.8441 -15.4997,63.3327 -38.8281,82.8345 -23.3285,19.3439 -54.9948,28.9982 -95.5081,28.9982 -47.4995,0 -84.1686,-17.1672 -109.99,-51.3262 -25.8386,-34.1765 -38.8457,-83.0101 -38.8457,-146.501 0,-63.6662 12.5156,-112.833 37.3361,-147.343 24.8381,-34.4924 60.1731,-51.8177 105.672,-51.8177 41.0048,0 73.8296,10.6549 98.3342,31.8243 24.6625,21.1694 39.8287,51.9932 45.674,92.3309l83.993 0c-4.49367,-64.1577 -27.1727,-114.167 -67.8264,-150.169 -40.6712,-36.002 -95.3325,-53.9943 -164.001,-53.9943 -71.6706,0 -127.841,24.5046 -168.671,73.6716 -40.8292,49.1671 -61.3316,116.66 -61.3316,202.163 0,87.6617 21.3274,156.173 63.9997,205.831 42.6548,49.6761 101.16,74.4967 175.657,74.4967 65.8428,0 118.345,-17.1672 157.998,-51.5017 39.5127,-34.3345 60.5066,-80.8334 63.1747,-139.497l-86.8367 0z"
     id="path317" /></glyph>
   <glyph
   unicode="b"
   horiz-adv-x="594"
   id="glyph319"><path
     d="M151.837 265.004c0,-65.0003 13.323,-115.168 40.0042,-150.345 26.6636,-35.1595 64.8247,-52.6602 114.325,-52.6602 48.1665,0 86.1697,17.1672 113.992,51.3262 27.8397,34.1765 41.6718,81.009 41.6718,140.515 0,66.0008 -13.4986,117.151 -40.3377,152.995 -26.8216,36.002 -65.0003,53.9943 -114.501,53.9943 -51.6597,0 -90.4878,-16.3247 -116.326,-48.9916 -25.8386,-32.8424 -38.8281,-81.676 -38.8281,-146.834zm-83.0101 -265.004l0 719.163 86.0117 0 0 -268.988c20.1689,29.4897 44.4979,51.9932 72.9871,67.1593 28.3488,15.1661 60.5066,22.6614 96.3331,22.6614 69.336,0 125.015,-25.3296 167.003,-76.1642 42.0053,-50.8347 62.9992,-118.837 62.9992,-204.164 0,-83.993 -20.8359,-150.836 -62.3321,-200.829 -41.4963,-50.0097 -97.0001,-75.0057 -166.67,-75.0057 -36.827,0 -68.9849,6.67029 -96.4911,19.9933 -27.5062,13.3406 -52.1687,34.0009 -73.8296,61.9986l0 -65.8253 -86.0117 0z"
     id="path321" /></glyph>
   <glyph
   unicode="a"
   horiz-adv-x="542"
   id="glyph323"><path
     d="M390.16 69.8275c-27.3307,-28.6647 -56.4869,-50.1676 -87.1527,-64.4912 -30.8413,-14.3411 -63.3327,-21.5029 -97.8427,-21.5029 -53.5028,0 -95.157,14.0076 -124.998,41.8298 -29.9988,27.8397 -45.0069,66.3343 -45.0069,115.343 0,47.6575 14.6746,84.8181 44.1819,111.833 29.4897,27.1551 74.3211,44.4979 134.494,52.3267 15.3241,1.66757 36.002,3.82664 61.9986,6.82828 44.6734,4.51123 72.0041,9.0049 81.992,13.1651 10.181,3.8442 16.8337,9.0049 20.1689,15.3417 3.17717,6.33678 4.84474,20.1689 4.84474,41.3383 0,26.6636 -9.84746,46.657 -29.3317,59.9975 -19.5018,13.323 -49.0091,19.9933 -88.3463,19.9933 -40.6537,0 -71.337,-8.16233 -91.9974,-24.329 -20.6604,-16.3422 -30.9993,-40.4957 -30.9993,-72.3376l-82.9925 0 0 3.8442c0,52.8182 18.5013,94.49 55.6619,125.156 37.1606,30.5078 88.1708,45.8319 153.329,45.8319 69.845,0 121.329,-13.1651 154.505,-39.3372 33.0004,-26.1546 49.5006,-67.1593 49.5006,-122.821l0 -261.669c0,-22.3279 2.49258,-36.827 7.33732,-43.3394 4.82719,-6.49476 13.6566,-9.82991 26.3301,-9.82991 2.66812,0 5.82773,0.175534 9.49639,0.667029 3.82664,0.509049 8.33787,1.33406 13.4986,2.3346l0 -68.0019c-10.6725,-2.8261 -20.1689,-5.00272 -27.9977,-6.16125 -8.00435,-1.17608 -15.6752,-1.66757 -22.837,-1.66757 -29.3317,0 -51.1682,6.33678 -65.8253,18.9928 -14.6746,12.8315 -22.012,31.9999 -22.012,57.6629l0 3.00163zm-8.32031 196.335c-23.504,-12.656 -63.6662,-22.6614 -120.68,-29.8232 -20.1513,-2.66812 -35.1595,-4.66921 -45.3229,-6.33678 -31.8419,-5.1607 -54.8368,-14.6746 -68.8445,-28.3312 -13.9901,-13.6741 -20.9939,-33.5095 -20.9939,-59.664 0,-26.0141 8.16233,-46.0075 24.329,-60.0151 16.3422,-13.9901 39.6707,-20.9939 69.845,-20.9939 47.324,0 85.9941,11.831 116.326,35.6685 30.1743,23.8375 45.3404,54.1698 45.3404,91.3304l0 78.1653z"
     id="path325" /></glyph>
   <glyph
   unicode="`"
   horiz-adv-x="499"
   id="glyph327"><path
     d="M319.841 594.165l-58.681 0 -139.163 170.005 98.1762 0 99.6682 -170.005z"
     id="path329" /></glyph>
   <glyph
   unicode=""
   horiz-adv-x="600"
   id="glyph331"><path
     d="M49.8341 -176.833l0 881.83 499.991 0 0 -881.83 -499.991 0zm56.1709 55.6619l388.158 0 0 769.998 -388.158 0 0 -769.998z"
     id="path333" /></glyph>
   <glyph
   unicode="~"
   horiz-adv-x="832"
   id="glyph335"><path
     d="M747.003 299.83c-33.843,-23.504 -66.1763,-40.8292 -97.1757,-51.9932 -30.9993,-11.164 -61.8231,-16.8337 -92.8224,-16.8337 -30.1743,0 -71.8461,9.49639 -124.998,28.4892 -7.17934,2.66812 -12.6736,4.66921 -16.5002,5.84528l-7.33732 2.49258c-57.3294,19.6774 -101.827,29.5073 -133.336,29.5073 -27.3307,0 -55.8374,-6.00326 -85.5026,-18.0098 -29.4897,-12.1645 -63.8242,-31.6663 -102.494,-58.6635l0 75.6727c34.4924,23.504 67.3349,41.0048 98.6677,52.8358 31.1573,11.6555 61.3316,17.5007 90.3298,17.5007 20.1689,0 40.8292,-2.17662 62.1742,-6.67029 21.3274,-4.33569 47.991,-12.34 79.8329,-23.8375 5.31868,-1.66757 12.9895,-4.33569 22.995,-8.33787 51.8352,-18.6593 90.8389,-27.9977 117.169,-27.9977 28.6647,0 57.8209,6.00326 87.6617,18.1678 29.8408,12.1645 63.5082,31.6663 101.336,58.5055l0 -76.6733z"
     id="path337" /></glyph>
   <glyph
   unicode="}"
   horiz-adv-x="499"
   id="glyph339"><path
     d="M280.837 545.999l0 -119.995c0,-47.6751 8.82936,-81.5005 26.3301,-101.178 17.6587,-19.6598 47.4995,-29.4897 89.8383,-29.4897 2.3346,0 5.82773,0.157981 10.8305,0.491495 4.82719,0.333515 8.49585,0.509049 11.164,0.509049l0 -73.1626c-2.3346,0 -5.82773,0.157981 -10.6725,0.491495 -5.00272,0.333515 -8.32031,0.509049 -10.3214,0.509049 -43.0058,0 -73.1802,-9.84746 -90.8389,-29.5073 -17.5007,-19.5018 -26.3301,-53.6608 -26.3301,-102.336l0 -119.17c0,-48.3245 -3.66866,-82.8345 -11.006,-103.319 -7.33732,-20.5024 -19.9933,-36.3356 -38.0031,-47.4995 -13.6566,-8.5134 -30.4903,-14.6746 -50.3256,-18.3433 -20.0109,-3.82664 -47.4995,-5.66975 -82.6765,-5.66975l-21.1519 0 0 73.1626 19.1508 0c39.1792,0 65.6673,7.17934 79.3414,21.6785 13.8321,14.4991 20.6604,44.4979 20.6604,89.9963l0 117.503c0,51.9932 7.17934,88.9958 21.6785,110.99 14.4991,22.17 39.9867,38.0031 76.4977,47.3415 -36.5111,9.82991 -61.9986,25.6631 -76.4977,47.833 -14.4991,22.17 -21.6785,59.3305 -21.6785,111.499l0 117.994c0,45.4984 -6.82828,75.5148 -20.6604,90.0139 -13.6741,14.4991 -40.1622,21.6609 -79.3414,21.6609l-19.1508 0 0 73.1626 18.1678 0c34.826,0 62.8236,-2.00109 83.6595,-6.16125 20.8359,-4.00218 38.3366,-10.4969 52.3267,-19.1683 18.0098,-11.164 30.6658,-26.8392 38.0031,-47.166 7.33732,-20.3268 11.006,-54.5033 11.006,-102.67z"
     id="path341" /></glyph>
   <glyph
   unicode="|"
   horiz-adv-x="499"
   id="glyph343"><path
     d="M286.998 764.17l0 -1000 -73.1626 0 0 1000 73.1626 0z"
     id="path345" /></glyph>
   <glyph
   unicode="{"
   horiz-adv-x="499"
   id="glyph347"><path
     d="M423.335 648.002l-20.1689 0c-39.1616,0 -65.4918,-7.16179 -78.8323,-21.6609 -13.4986,-14.4991 -20.1689,-44.5154 -20.1689,-90.0139l0 -117.994c0,-52.1687 -7.16179,-89.3293 -21.6609,-111.499 -14.4991,-22.17 -40.0042,-38.0031 -76.4977,-47.833 36.827,-9.16288 62.3321,-24.6625 76.6557,-46.8325 14.3411,-21.9944 21.5029,-59.3305 21.5029,-111.499l0 -118.503c0,-45.4984 6.82828,-75.1637 20.3268,-89.3293 13.6741,-14.1656 40.1797,-21.3449 79.6749,-21.3449l19.1683 0 0 -73.1626 -21.1694 0c-35.1595,0 -62.6657,1.84311 -82.659,5.66975 -19.8353,3.66866 -36.6691,9.82991 -50.3432,18.3433 -17.9922,11.164 -30.6658,26.9971 -38.0031,47.4995 -7.31977,20.4848 -10.9884,54.9948 -10.9884,103.319l0 119.17c0,48.3421 -8.84692,82.343 -26.6636,102.161 -17.6763,19.8353 -47.8506,29.6828 -90.5054,29.6828 -2.3346,0 -5.84528,-0.175534 -10.4969,-0.509049 -4.66921,-0.333515 -8.17989,-0.491495 -10.5145,-0.491495l0 73.1626c2.66812,0 6.33678,-0.175534 11.1815,-0.509049 4.98517,-0.333515 8.49585,-0.491495 10.8305,-0.491495 42.3213,0 72.1621,9.82991 89.8208,29.4897 17.5007,19.6774 26.3477,53.5028 26.3477,101.178l0 119.995c0,48.1665 3.66866,82.343 10.9884,102.67 7.33732,20.3268 20.0109,36.002 38.0031,47.166 14.6746,9.0049 32.3334,15.4997 53.0113,19.5018 20.8183,3.82664 48.5001,5.82773 82.9925,5.82773l18.1678 0 0 -73.1626z"
     id="path349" /></glyph>
   <glyph
   unicode="z"
   horiz-adv-x="480"
   id="glyph351"><path
     d="M446.664 523.004l0 -70.8455 -305.657 -372.992 319.823 0 0 -79.1659 -435.992 0 0 71.8285 308.993 374.01 -292.826 0 0 77.1648 405.659 0z"
     id="path353" /></glyph>
   <glyph
   unicode="y"
   horiz-adv-x="506"
   id="glyph355"><path
     d="M398.006 523.004l98.1586 0 -220.172 -603.995c-20.8183,-57.0135 -41.8298,-94.174 -62.9992,-111.85 -21.1519,-17.4832 -51.8177,-26.3301 -91.8219,-26.3301 -8.82936,0 -17.5007,0.667029 -26.1721,2.17662 -8.67138,1.49204 -17.3252,3.49313 -25.9966,6.16125l0 83.993c8.67138,-2.65056 17.3252,-4.49367 25.8386,-5.82773 8.49585,-1.33406 16.8337,-2.00109 25.3296,-2.00109 16.9917,0 30.6658,3.33515 41.0048,10.1634 10.4969,6.84583 18.4837,17.8343 23.9955,32.8424l22.837 61.9986 -198.178 552.669 98.1762 0 144.991 -422.844 145.009 422.844z"
     id="path357" /></glyph>
   <glyph
   unicode="x"
   horiz-adv-x="478"
   id="glyph359"><path
     d="M0 0l182.169 269.006 -173.34 253.998 103.003 0 128.508 -187.997 125.998 187.997 101.494 0 -175.832 -252.997 186.996 -270.006 -106.005 0 -137.162 202.163 -132.827 -202.163 -103.003 0z"
     id="path361" /></glyph>
   <glyph
   unicode="w"
   horiz-adv-x="727"
   id="glyph363"><path
     d="M163.159 0l-156.331 523.004 91.3304 0 110.85 -400.007 103.161 400.007 102.003 0 102.161 -400.007 114.659 400.007 90.3474 0 -159.174 -523.004 -88.8378 0 -110.323 402.833 -111.008 -402.833 -88.8378 0z"
     id="path365" /></glyph>
   <glyph
   unicode="v"
   horiz-adv-x="480"
   id="glyph367"><path
     d="M193.825 0l-192.824 523.004 94.174 0 145.992 -419 142.674 419 94.1565 0 -190.823 -523.004 -93.349 0z"
     id="path369" /></glyph>
   <glyph
   unicode="u"
   horiz-adv-x="568"
   id="glyph371"><path
     d="M153.838 523.004l0 -320.841c0,-51.3262 7.9868,-87.1702 24.1535,-107.164 16.1667,-19.9933 43.3394,-29.9988 81.834,-29.9988 50.8347,0 89.1713,14.8326 115.343,44.6734 25.9966,29.8232 39.0037,73.6541 39.0037,131.668l0 281.662 87.8197 0 0 -523.004 -83.993 0 0 78.1653c-18.1678,-30.3323 -41.8298,-52.9937 -70.67,-68.3354 -28.9982,-15.3241 -62.9992,-22.995 -102.161,-22.995 -36.4935,0 -68.1599,6.16125 -95.1746,18.5013 -26.9971,12.498 -47.6575,29.9988 -61.9986,52.8358 -8.16233,12.656 -13.9901,27.4886 -17.6587,44.6559 -3.51068,17.1672 -5.33624,44.1644 -5.33624,81.3425l0 24.8381 0 313.995 88.8378 0z"
     id="path373" /></glyph>
   <glyph
   unicode="t"
   horiz-adv-x="280"
   id="glyph375"><path
     d="M169.829 131.826c0,-23.4865 3.33515,-39.1616 10.0054,-46.9905 6.67029,-7.82882 18.9928,-11.673 36.827,-11.673 5.17825,0 11.4975,0.175534 18.8348,0.509049 7.33732,0.333515 16.8337,1.00054 28.5067,2.00109l0 -74.6722c-14.6746,-2.66812 -27.6642,-4.49367 -39.3372,-5.82773 -11.4975,-1.33406 -21.8364,-2.00109 -30.9993,-2.00109 -41.1627,0 -70.161,7.9868 -86.8367,23.82 -16.5002,16.0087 -24.8381,44.3399 -24.8381,85.0111l0 351.156 -78.1653 0 0 69.845 78.1653 0 0 145.992 87.8372 0 0 -145.992 94.174 0 0 -69.845 -94.174 0 0 -321.333z"
     id="path377" /></glyph>
   <glyph
   unicode="s"
   horiz-adv-x="496"
   id="glyph379"><path
     d="M30.8413 170.005l84.4845 0c3.33515,-35.5105 16.0087,-62.3321 38.3366,-80.6755 22.3455,-18.1678 54.0118,-27.3307 94.999,-27.3307 37.6696,0 67.5104,7.33732 89.3468,22.17 21.8189,14.8326 32.6669,35.1595 32.6669,60.8401 0,19.1508 -5.51177,33.9834 -16.3422,44.1644 -11.006,10.3214 -32.1578,19.1683 -63.8417,26.6636l-98.1586 25.3296c-55.3283,13.3406 -93.665,30.9993 -115.326,52.9937 -21.6785,22.012 -32.5089,53.3448 -32.5089,93.9985 0,46.183 17.5007,82.8345 52.5022,110.007 35.0015,27.1727 82.8345,40.8292 143.833,40.8292 62.1742,0 111.499,-14.4991 148.326,-43.4973 36.8446,-28.9982 55.1704,-67.8264 55.1704,-116.66l0 -2.00109 -85.5026 0c-2.00109,27.6642 -13.323,49.1671 -34.0009,64.3332 -20.6604,15.1661 -48.658,22.6614 -84.151,22.6614 -35.5105,0 -62.3497,-6.16125 -80.8334,-18.5013 -18.3433,-12.498 -27.5062,-30.4903 -27.5062,-54.3278 0,-16.8337 5.82773,-30.1743 17.3252,-39.6707 11.515,-9.67193 33.1759,-17.9922 64.6667,-25.1716l85.0111 -19.9933c60.489,-14.3411 102.161,-32.6669 124.998,-54.9948 22.837,-22.3455 34.1589,-54.1698 34.1589,-95.5081 0,-54.3278 -19.1683,-96.4911 -57.3294,-126.665 -38.3366,-30.1568 -91.6639,-45.1649 -160.333,-45.1649 -67.1593,0 -118.661,16.0087 -154.663,47.833 -35.8441,31.9999 -54.3278,78.0073 -55.3283,138.338z"
     id="path381" /></glyph>
   <glyph
   unicode="r"
   horiz-adv-x="332"
   id="glyph383"><path
     d="M66.8258 0l0 523.004 84.8356 0 0 -93.8405c14.0076,35.177 33.0004,61.5071 57.0135,78.8323 23.9955,17.5007 53.3272,26.1721 88.1532,26.1721 6.51231,0 11.3395,0 14.1656,-0.175534 3.00163,-0.157981 5.84528,-0.667029 8.84692,-1.33406l0 -92.8224c-2.3346,0.333515 -4.84474,0.667029 -7.84637,0.82501 -3.00163,0.175534 -7.31977,0.175534 -13.1651,0.175534 -46.9905,0 -82.659,-12.8315 -107.322,-38.3366 -24.5046,-25.5051 -36.8446,-62.6657 -36.8446,-111.499l0 -291 -87.8372 0z"
     id="path385" /></glyph>
   <glyph
   unicode="q"
   horiz-adv-x="594"
   id="glyph387"><path
     d="M130.826 269.006c0,-66.6678 13.8496,-118.17 41.6718,-154.014 27.8397,-35.9845 67.3349,-53.9943 118.503,-53.9943 48.1665,0 85.3271,17.3428 111.499,52.1687 26.1721,34.826 39.3372,84.5021 39.3372,148.993 0,62.8412 -13.4986,111.675 -40.4957,146.501 -27.0147,34.8435 -64.8423,52.1687 -113.342,52.1687 -48.5001,0 -86.8367,-17.1672 -114.992,-51.3262 -28.1732,-34.1765 -42.1808,-81.009 -42.1808,-140.497zm308.01 -200.179c-16.8337,-27.6642 -39.6707,-48.8336 -68.4934,-63.3327 -28.8402,-14.4991 -62.6832,-21.6609 -101.336,-21.6609 -69.6695,0 -125.173,25.1716 -166.67,75.6727 -41.4963,50.5011 -62.3321,118.328 -62.3321,203.655 0,84.3441 20.8359,151.503 62.3321,201.671 41.4963,50.1676 97.0001,75.1637 166.67,75.1637 37.1606,0 69.4939,-7.16179 97.1581,-21.5029 27.6642,-14.3236 51.8352,-36.4935 72.6711,-66.4923l0 71.0035 84.9936 0 0 -732.012 -84.9936 0 0 277.835z"
     id="path389" /></glyph>
   <glyph
   unicode="p"
   horiz-adv-x="594"
   id="glyph391"><path
     d="M151.837 257.842c0,-65.1758 12.9895,-114.009 38.8281,-146.834 25.8386,-32.6669 64.6667,-49.0091 116.326,-49.0091 49.5006,0 87.6793,18.0098 114.501,53.9943 26.8392,35.8441 40.3377,87.0122 40.3377,153.013 0,59.4885 -13.8321,106.321 -41.6718,140.497 -27.8221,34.1589 -65.8253,51.3262 -113.992,51.3262 -49.5006,0 -87.6617,-17.5007 -114.325,-52.6602 -26.6812,-35.177 -40.0042,-85.3447 -40.0042,-150.327zm-83.0101 -466.85l0 732.012 86.0117 0 0 -73.8296c21.6609,31.1573 46.1655,54.1523 73.3206,68.8269 27.3482,14.6571 59.506,21.9944 97.0001,21.9944 69.6695,0 125.173,-24.9961 166.67,-75.1637 41.4963,-50.1676 62.3321,-117.327 62.3321,-201.671 0,-85.3271 -20.9939,-153.153 -62.9992,-203.655 -41.9877,-50.5011 -97.6672,-75.6727 -167.003,-75.6727 -36.827,0 -68.9849,6.67029 -96.8246,19.8353 -27.8397,13.1651 -51.9932,33.3339 -72.4956,60.3311l0 -273.008 -86.0117 0z"
     id="path393" /></glyph>
   <glyph
   unicode="  "
   horiz-adv-x="600"
   id="glyph395"><path
     d="M49.8341 -176.833l0 881.83 499.991 0 0 -881.83 -499.991 0zm56.1709 55.6619l388.158 0 0 769.998 -388.158 0 0 -769.998z"
     id="path397" /></glyph>
   <glyph
   unicode="  "
   horiz-adv-x="600"
   id="glyph399"><path
     d="M49.8341 -176.833l0 881.83 499.991 0 0 -881.83 -499.991 0zm56.1709 55.6619l388.158 0 0 769.998 -388.158 0 0 -769.998z"
     id="path401" /></glyph>
   <glyph
   unicode="  "
   horiz-adv-x="600"
   id="glyph403"><path
     d="M49.8341 -176.833l0 881.83 499.991 0 0 -881.83 -499.991 0zm56.1709 55.6619l388.158 0 0 769.998 -388.158 0 0 -769.998z"
     id="path405" /></glyph>
   <glyph
   unicode="  "
   horiz-adv-x="600"
   id="glyph407"><path
     d="M49.8341 -176.833l0 881.83 499.991 0 0 -881.83 -499.991 0zm56.1709 55.6619l388.158 0 0 769.998 -388.158 0 0 -769.998z"
     id="path409" /></glyph>
   <glyph
   unicode="  "
   horiz-adv-x="600"
   id="glyph411"><path
     d="M49.8341 -176.833l0 881.83 499.991 0 0 -881.83 -499.991 0zm56.1709 55.6619l388.158 0 0 769.998 -388.158 0 0 -769.998z"
     id="path413" /></glyph>
   <glyph
   unicode="  "
   horiz-adv-x="600"
   id="glyph415"><path
     d="M49.8341 -176.833l0 881.83 499.991 0 0 -881.83 -499.991 0zm56.1709 55.6619l388.158 0 0 769.998 -388.158 0 0 -769.998z"
     id="path417" /></glyph>
   <glyph
   unicode="  "
   horiz-adv-x="600"
   id="glyph419"><path
     d="M49.8341 -176.833l0 881.83 499.991 0 0 -881.83 -499.991 0zm56.1709 55.6619l388.158 0 0 769.998 -388.158 0 0 -769.998z"
     id="path421" /></glyph>
   <glyph
   unicode="  "
   horiz-adv-x="600"
   id="glyph423"><path
     d="M49.8341 -176.833l0 881.83 499.991 0 0 -881.83 -499.991 0zm56.1709 55.6619l388.158 0 0 769.998 -388.158 0 0 -769.998z"
     id="path425" /></glyph>
   <glyph
   unicode="  "
   horiz-adv-x="600"
   id="glyph427"><path
     d="M49.8341 -176.833l0 881.83 499.991 0 0 -881.83 -499.991 0zm56.1709 55.6619l388.158 0 0 769.998 -388.158 0 0 -769.998z"
     id="path429" /></glyph>
   <glyph
   unicode="  "
   horiz-adv-x="600"
   id="glyph431"><path
     d="M49.8341 -176.833l0 881.83 499.991 0 0 -881.83 -499.991 0zm56.1709 55.6619l388.158 0 0 769.998 -388.158 0 0 -769.998z"
     id="path433" /></glyph>
   <glyph
   unicode="  "
   horiz-adv-x="600"
   id="glyph435"><path
     d="M49.8341 -176.833l0 881.83 499.991 0 0 -881.83 -499.991 0zm56.1709 55.6619l388.158 0 0 769.998 -388.158 0 0 -769.998z"
     id="path437" /></glyph>
   <glyph
   unicode="  "
   horiz-adv-x="600"
   id="glyph439"><path
     d="M49.8341 -176.833l0 881.83 499.991 0 0 -881.83 -499.991 0zm56.1709 55.6619l388.158 0 0 769.998 -388.158 0 0 -769.998z"
     id="path441" /></glyph>
   <glyph
   unicode="  "
   horiz-adv-x="600"
   id="glyph443"><path
     d="M49.8341 -176.833l0 881.83 499.991 0 0 -881.83 -499.991 0zm56.1709 55.6619l388.158 0 0 769.998 -388.158 0 0 -769.998z"
     id="path445" /></glyph>
   <glyph
   unicode="  "
   horiz-adv-x="600"
   id="glyph447"><path
     d="M49.8341 -176.833l0 881.83 499.991 0 0 -881.83 -499.991 0zm56.1709 55.6619l388.158 0 0 769.998 -388.158 0 0 -769.998z"
     id="path449" /></glyph>
   <glyph
   unicode="  "
   horiz-adv-x="600"
   id="glyph451"><path
     d="M49.8341 -176.833l0 881.83 499.991 0 0 -881.83 -499.991 0zm56.1709 55.6619l388.158 0 0 769.998 -388.158 0 0 -769.998z"
     id="path453" /></glyph>
   <glyph
   unicode="  "
   horiz-adv-x="548"
   id="glyph455"><path
     d="M430.164 265.162l95.6661 -0.491495c-2.3346,-86.5032 -25.1716,-155.664 -68.6689,-207.341 -43.3218,-51.5017 -100.335,-77.3228 -170.988,-77.3228 -69.336,0 -124.173,26.4881 -164.511,79.3238 -40.4957,52.8358 -63.1572,128.333 -68.3354,226.667l-54.3278 0 18.9928 45.0069 31.8419 0 0 56.1533 -63.9997 0 18.9928 45.0069 48.5001 0c5.17825,100.002 28.6647,175.832 70.67,227.843 42.0053,51.8177 100.669,77.8318 175.832,77.8318 63.1747,0 114.343,-20.6779 153.505,-61.9986 39.3372,-41.3383 62.1742,-99.0012 68.6689,-172.848l-96.1751 0c-5.49422,50.5011 -19.5018,88.5043 -41.9877,114.343 -22.5035,25.6631 -52.6778,38.4946 -90.8389,38.4946 -45.4984,0 -80.1664,-18.3258 -103.828,-54.9948 -23.504,-36.4935 -37.0026,-92.84 -40.1797,-168.671l219.172 0 -18.9928 -45.0069 -202.18 0 0 -56.1533 176.342 0 -19.1683 -45.0069 -155.172 0c2.51014,-75.4972 15.6752,-131.668 39.3372,-168.671 23.504,-36.827 58.172,-55.3283 103.67,-55.3283 41.3383,0 74.1631,17.8343 98.6677,53.5028 24.329,35.6685 37.4941,85.5026 39.4952,149.66z"
     id="path457" /></glyph>
   <glyph
   unicode="  "
   horiz-adv-x="600"
   id="glyph459"><path
     d="M49.8341 -176.833l0 881.83 499.991 0 0 -881.83 -499.991 0zm56.1709 55.6619l388.158 0 0 769.998 -388.158 0 0 -769.998z"
     id="path461" /></glyph>
   <glyph
   unicode="  "
   horiz-adv-x="600"
   id="glyph463"><path
     d="M49.8341 -176.833l0 881.83 499.991 0 0 -881.83 -499.991 0zm56.1709 55.6619l388.158 0 0 769.998 -388.158 0 0 -769.998z"
     id="path465" /></glyph>
   <glyph
   unicode="  "
   horiz-adv-x="600"
   id="glyph467"><path
     d="M49.8341 -176.833l0 881.83 499.991 0 0 -881.83 -499.991 0zm56.1709 55.6619l388.158 0 0 769.998 -388.158 0 0 -769.998z"
     id="path469" /></glyph>
   <glyph
   unicode="  "
   horiz-adv-x="600"
   id="glyph471"><path
     d="M49.8341 -176.833l0 881.83 499.991 0 0 -881.83 -499.991 0zm56.1709 55.6619l388.158 0 0 769.998 -388.158 0 0 -769.998z"
     id="path473" /></glyph>
   <glyph
   unicode="  "
   horiz-adv-x="600"
   id="glyph475"><path
     d="M49.8341 -176.833l0 881.83 499.991 0 0 -881.83 -499.991 0zm56.1709 55.6619l388.158 0 0 769.998 -388.158 0 0 -769.998z"
     id="path477" /></glyph>
   <glyph
   unicode="  "
   horiz-adv-x="600"
   id="glyph479"><path
     d="M49.8341 -176.833l0 881.83 499.991 0 0 -881.83 -499.991 0zm56.1709 55.6619l388.158 0 0 769.998 -388.158 0 0 -769.998z"
     id="path481" /></glyph>
   <glyph
   unicode="  "
   horiz-adv-x="600"
   id="glyph483"><path
     d="M49.8341 -176.833l0 881.83 499.991 0 0 -881.83 -499.991 0zm56.1709 55.6619l388.158 0 0 769.998 -388.158 0 0 -769.998z"
     id="path485" /></glyph>
   <glyph
   unicode="  "
   horiz-adv-x="600"
   id="glyph487"><path
     d="M49.8341 -176.833l0 881.83 499.991 0 0 -881.83 -499.991 0zm56.1709 55.6619l388.158 0 0 769.998 -388.158 0 0 -769.998z"
     id="path489" /></glyph>
   <glyph
   unicode="  "
   horiz-adv-x="600"
   id="glyph491"><path
     d="M49.8341 -176.833l0 881.83 499.991 0 0 -881.83 -499.991 0zm56.1709 55.6619l388.158 0 0 769.998 -388.158 0 0 -769.998z"
     id="path493" /></glyph>
   <glyph
   unicode="  "
   horiz-adv-x="600"
   id="glyph495"><path
     d="M49.8341 -176.833l0 881.83 499.991 0 0 -881.83 -499.991 0zm56.1709 55.6619l388.158 0 0 769.998 -388.158 0 0 -769.998z"
     id="path497" /></glyph>
   <glyph
   unicode="  "
   horiz-adv-x="600"
   id="glyph499"><path
     d="M49.8341 -176.833l0 881.83 499.991 0 0 -881.83 -499.991 0zm56.1709 55.6619l388.158 0 0 769.998 -388.158 0 0 -769.998z"
     id="path501" /></glyph>
   <glyph
   unicode="  "
   horiz-adv-x="600"
   id="glyph503"><path
     d="M49.8341 -176.833l0 881.83 499.991 0 0 -881.83 -499.991 0zm56.1709 55.6619l388.158 0 0 769.998 -388.158 0 0 -769.998z"
     id="path505" /></glyph>
   <glyph
   unicode="  "
   horiz-adv-x="600"
   id="glyph507"><path
     d="M49.8341 -176.833l0 881.83 499.991 0 0 -881.83 -499.991 0zm56.1709 55.6619l388.158 0 0 769.998 -388.158 0 0 -769.998z"
     id="path509" /></glyph>
   <glyph
   unicode="  "
   horiz-adv-x="600"
   id="glyph511"><path
     d="M49.8341 -176.833l0 881.83 499.991 0 0 -881.83 -499.991 0zm56.1709 55.6619l388.158 0 0 769.998 -388.158 0 0 -769.998z"
     id="path513" /></glyph>
   <glyph
   unicode="  "
   horiz-adv-x="600"
   id="glyph515"><path
     d="M49.8341 -176.833l0 881.83 499.991 0 0 -881.83 -499.991 0zm56.1709 55.6619l388.158 0 0 769.998 -388.158 0 0 -769.998z"
     id="path517" /></glyph>
   <glyph
   unicode="  "
   horiz-adv-x="600"
   id="glyph519"><path
     d="M49.8341 -176.833l0 881.83 499.991 0 0 -881.83 -499.991 0zm56.1709 55.6619l388.158 0 0 769.998 -388.158 0 0 -769.998z"
     id="path521" /></glyph>
   <glyph
   unicode="  "
   horiz-adv-x="499"
   id="glyph523"><path
     d="M118.17 639.172l0 68.8269 263.67 0 0 -68.8269 -263.67 0z"
     id="path525" /></glyph>
   <glyph
   unicode="  "
   horiz-adv-x="832"
   id="glyph527"><path
     d="M412.33 516.491l-63.1572 0 0 -135.161 65.1582 0c36.8446,0 63.1747,5.17825 79.1659,15.3417 16.0087,10.3214 23.9955,26.8216 23.9955,49.5006 0,24.8205 -8.32031,42.6548 -24.9961,53.6608 -16.6582,11.164 -43.3218,16.6582 -80.1664,16.6582zm13.6741 49.8341c56.6624,0 99.3347,-9.32086 127.824,-27.9977 28.5067,-18.8348 42.8479,-46.657 42.8479,-83.8351 0,-28.9982 -8.17989,-52.9937 -24.5046,-72.1621 -16.1667,-19.1683 -39.1792,-31.8243 -68.8445,-37.6696l91.3479 -186.329 -86.5032 0 -83.168 174.165 -75.8307 0 0 -174.165 -77.1648 0 0 407.994 153.996 0zm304.499 -214.485c0,43.6553 -7.67084,84.3266 -22.837,122.488 -15.1661,38.0031 -37.1606,71.5126 -66.1588,100.511 -30.1743,30.1568 -64.1753,53.1693 -102.178,69.0024 -38.0031,15.8332 -78.4988,23.662 -121.663,23.662 -42.3388,0 -82.3255,-7.67084 -119.837,-22.995 -37.4941,-15.1837 -70.3365,-37.1781 -98.3342,-65.8428 -30.6658,-30.8238 -54.3278,-65.6673 -70.828,-104.337 -16.5002,-38.6702 -24.6625,-78.6568 -24.6625,-119.504 0,-40.6537 7.82882,-79.8329 23.662,-117.327 15.8332,-37.6696 38.6702,-71.337 68.3354,-101.336 29.3317,-29.8232 62.9992,-52.8358 101.16,-69.0024 38.0031,-16.1667 77.1648,-24.1535 117.678,-24.1535 42.3213,0 82.659,7.82882 120.662,23.4865 38.0031,15.4997 72.6711,38.3366 104.004,68.1774 29.3317,28.6647 51.8352,61.6651 67.4928,98.8257 15.6752,37.3361 23.504,76.6733 23.504,118.345zm-314.171 363.496c49.1671,0 95.6661,-9.16288 139.672,-27.3307 43.9888,-18.3433 82.9925,-44.8314 117.327,-79.6749 33.5095,-33.8254 59.1725,-72.6711 77.1648,-116.326 17.8343,-43.6729 26.8392,-89.1713 26.8392,-136.671 0,-49.3251 -9.0049,-95.5081 -26.8392,-138.672 -17.9922,-43.1638 -43.9888,-81.3249 -78.1653,-114.501 -35.493,-34.4924 -75.3392,-60.9981 -119.504,-79.3238 -44.1644,-18.5013 -89.6628,-27.6642 -136.495,-27.6642 -47.991,0 -93.665,9.16288 -137.162,27.6642 -43.4973,18.3258 -82.501,45.1649 -117.011,80.3244 -34.1589,34.51 -60.1555,73.3381 -78.1653,116.502 -17.8343,43.1638 -26.8216,88.3287 -26.8216,135.67 0,47.4995 9.32086,93.507 28.1557,138.005 18.6768,44.3224 45.674,84.3266 80.8334,119.82 32.8424,33.6674 70.512,59.0146 113.009,76.3398 42.4968,17.1672 88.1708,25.8386 137.162,25.8386z"
     id="path529" /></glyph>
   <glyph
   unicode="  "
   horiz-adv-x="311"
   id="glyph531"><path
     d="M35.1595 225.175l0 79.1659 241.675 0 0 -79.1659 -241.675 0z"
     id="path533" /></glyph>
   <glyph
   unicode="  "
   horiz-adv-x="832"
   id="glyph535"><path
     d="M709 420l0 -245.168 -66.8258 0 0 177.342 -518.177 0 0 67.8264 585.002 0z"
     id="path537" /></glyph>
   <glyph
   unicode="  "
   horiz-adv-x="443"
   id="glyph539"><path
     d="M396.83 431.164l0 -84.9936 -104.004 -82.0095 104.004 -80.9914 0 -86.0117 -158.156 118.679 0 97.1581 158.156 118.17zm-199.67 0l0 -84.9936 -104.32 -82.0095 104.32 -80.9914 0 -86.0117 -158.156 118.679 0 97.1581 158.156 118.17z"
     id="path541" /></glyph>
   <glyph
   unicode="  "
   horiz-adv-x="407"
   id="glyph543"><path
     d="M49.8341 277.835l324.159 0 0 -54.6613 -324.159 0 0 54.6613zm233.337 259.334c-15.6752,-7.4953 -43.6729,-13.6741 -84.0106,-18.6768 -15.4997,-1.82555 -27.3307,-3.31759 -35.1595,-4.31814 -23.9955,-3.8442 -40.8292,-10.181 -50.5011,-19.0103 -9.49639,-8.82936 -14.3411,-21.8364 -14.3411,-39.1616 0,-17.1672 5.66975,-30.3323 17.0093,-39.4952 11.4975,-9.18043 27.9977,-13.6741 49.8341,-13.6741 33.8254,0 61.8231,8.16233 83.993,24.5046 22.17,16.1667 33.1759,36.6691 33.1759,61.4896l0 48.3421zm5.82773 -140.164c-19.5018,-18.1678 -40.4957,-31.9999 -62.9992,-41.3383 -22.3279,-9.16288 -46.499,-13.8321 -72.1621,-13.8321 -41.3383,0 -73.6716,10.1634 -97.0001,30.4903 -23.1705,20.3444 -34.8435,48.3421 -34.8435,83.8351 0,33.843 11.3395,60.5066 34.0009,80.1664 22.5035,19.8353 56.9959,32.3334 103.179,38.0031 14.6571,1.50959 32.8249,3.33515 54.6613,5.33624 46.1655,4.16016 69.336,19.3263 69.336,45.3404 0,16.9917 -7.00381,29.6653 -21.0114,38.1611 -13.9901,8.49585 -35.0015,12.6736 -62.9992,12.6736 -29.8232,0 -52.1687,-5.51177 -66.4923,-16.3422 -14.4991,-11.006 -21.8364,-27.8397 -21.8364,-50.5011l-70.828 0 0 6.33678c0,38.0031 14.3236,68.0019 42.9883,89.8383 28.6823,21.8189 68.0019,32.6669 118.17,32.6669 53.6783,0 93.3315,-9.33841 119.17,-28.0152 25.6631,-18.8173 38.4946,-47.991 38.4946,-87.6617l0 -184.17c0,-14.6571 1.50959,-23.82 4.66921,-27.6642 3.00163,-3.66866 8.82936,-5.49422 17.3428,-5.49422 2.3346,0 5.33624,0.333515 8.98734,1.00054 3.8442,0.491495 7.67084,1.15852 12.0065,1.82555l0 -54.6613c-7.16179,-2.15907 -14.0076,-4.00218 -20.5024,-5.00272 -6.49476,-1.15852 -12.3225,-1.82555 -17.6587,-1.82555 -24.3466,0 -42.8303,4.33569 -55.6794,12.656 -12.656,8.5134 -18.9928,21.1694 -18.9928,38.1787z"
     id="path545" /></glyph>
   <glyph
   unicode="  "
   horiz-adv-x="832"
   id="glyph547"><path
     d="M514.666 443.329c-4.33569,24.9961 -14.9906,44.3399 -32.3334,57.8385 -17.3252,13.4986 -40.0042,20.3268 -68.0019,20.3268 -34.1589,0 -61.1561,-14.6571 -80.6579,-44.1644 -19.5018,-29.4897 -29.3317,-70.161 -29.3317,-121.996 0,-51.1682 10.1634,-90.9969 30.3323,-119.504 20.1513,-28.4892 48.3245,-42.8303 84.6601,-42.8303 26.6636,0 48.8336,7.67084 66.6678,22.995 17.8343,15.3417 28.9982,36.3356 33.4919,62.9992l70.8455 0c-3.00163,-42.3213 -20.5024,-76.6557 -52.5022,-102.986 -32.1754,-26.5056 -72.6711,-39.6707 -121.505,-39.6707 -59.3305,0 -105.829,19.5018 -139.497,58.6635 -33.843,39.0037 -50.6767,93.507 -50.6767,163.159 0,65.1758 17.8343,117.678 53.3448,157.682 35.493,39.8287 81.992,59.822 139.83,59.822 46.1655,0 84.6601,-12.1645 115.501,-36.6691 30.8238,-24.329 47.991,-56.3289 51.6597,-95.6661l-71.8285 0zm215.837 -88.5043c0,42.1808 -7.67084,82.343 -23.1705,120.171 -15.4997,38.0031 -37.8276,71.5126 -66.8258,100.844 -30.3323,29.8232 -64.5088,52.6602 -102.336,68.1599 -37.8451,15.6752 -78.0073,23.504 -120.504,23.504 -42.0053,0 -81.6584,-7.67084 -119.17,-22.995 -37.3361,-15.1837 -70.67,-37.5116 -100.002,-66.8434 -30.3323,-30.1568 -53.6608,-64.6667 -69.9854,-103.161 -16.3422,-38.5122 -24.5046,-78.4988 -24.5046,-119.679 0,-40.9872 8.00435,-80.3244 23.9955,-118.152 16.0087,-37.6696 39.0037,-71.6706 69.0024,-102.003 29.9988,-29.5073 63.8242,-52.1687 101.494,-68.0019 37.6696,-15.8332 77.4983,-23.662 119.17,-23.662 40.8292,0 80.3419,7.9868 118.503,23.82 38.1611,16.0087 73.0046,39.1792 104.337,69.336 29.3317,28.6647 51.6597,61.5071 67.0014,98.8432 15.3241,37.1606 22.995,77.1648 22.995,119.82zm-314.171 360.512c49.5006,0 95.9996,-8.82936 139.497,-26.6636 43.3394,-17.6763 82.343,-43.8309 116.502,-78.3409 33.843,-33.6674 59.8396,-72.4956 77.8318,-116.502 18.1678,-44.1644 27.1727,-90.3298 27.1727,-138.496 0,-48.6756 -8.82936,-94.5075 -26.6636,-137.671 -17.6763,-43.1638 -43.4973,-81.3249 -77.3403,-114.501 -35.8265,-34.826 -75.8307,-61.6651 -119.995,-80.1664 -44.1644,-18.5013 -89.8383,-27.8221 -137.004,-27.8221 -47.324,0 -92.6644,9.16288 -136.162,27.3307 -43.4973,18.3258 -82.501,44.8314 -117.011,79.6574 -34.4924,34.1765 -60.8226,73.0046 -78.8323,116.502 -18.1678,43.4973 -27.1551,88.9958 -27.1551,136.671 0,47.833 9.16288,93.665 27.3307,137.496 18.3258,43.8309 44.8314,83.3436 79.6574,118.503 33.843,33.8254 72.3376,59.664 115.343,77.3403 43.0058,17.8343 88.5043,26.6636 136.829,26.6636z"
     id="path549" /></glyph>
   <glyph
   unicode="  "
   horiz-adv-x="499"
   id="glyph551"><path
     d="M286.173 622.005l0 103.003 88.8202 0 0 -103.003 -88.8202 0zm-161.175 0l0 103.003 88.8378 0 0 -103.003 -88.8378 0z"
     id="path553" /></glyph>
   <glyph
   unicode="  "
   horiz-adv-x="499"
   id="glyph555"><path
     d="M320.666 211.835c15.6752,9.49639 27.9977,21.1694 36.827,35.1595 9.0049,14.0076 13.4986,28.6647 13.4986,44.0064 0,17.8343 -5.82773,33.8254 -17.4832,47.6751 -11.8485,13.8321 -34.8435,30.3323 -69.336,49.4831l-106.005 58.681c-17.6587,-10.181 -30.8413,-21.1694 -39.3372,-33.3339 -8.67138,-12.0065 -12.9895,-25.1716 -12.9895,-39.5127 0,-18.1678 5.49422,-34.1589 16.6582,-47.833 11.006,-13.6566 34.51,-30.8238 70.3365,-51.3262l107.831 -62.9992zm-247.503 -144.008l85.0111 0 0 -2.00109c0,-27.3307 8.16233,-48.5001 24.329,-63.3327 16.3247,-14.9906 39.4952,-22.4859 69.336,-22.4859 25.8211,0 46.1655,6.16125 61.3316,18.5013 15.1661,12.3225 22.6614,29.1562 22.6614,50.3256 0,19.1683 -7.33732,36.6691 -22.17,52.1687 -14.8326,15.6576 -43.9888,35.335 -87.6617,59.1725l-88.8378 48.8336c-33.4919,18.1502 -58.33,38.4946 -74.3211,60.9981 -15.8332,22.4859 -23.8375,48.1665 -23.8375,77.1648 0,27.3307 7.16179,52.8358 21.6609,76.4977 14.4991,23.504 36.16,44.9894 65.1758,64.1577 -15.0082,12.6736 -26.1721,27.1727 -33.6674,43.5149 -7.51286,16.1667 -11.1815,34.4924 -11.1815,54.6613 0,44.8314 15.1837,81.6584 45.674,110.165 30.5078,28.5067 69.8275,42.6723 118.328,42.6723 52.5022,0 93.6825,-14.0076 123.839,-42.0053 30.1743,-27.9977 45.1649,-66.3343 45.1649,-114.834l0 -4.82719 -82.9925 0c-1.33406,26.9971 -9.67193,48.5001 -25.1716,64.3332 -15.4997,15.8332 -35.6685,23.662 -60.8401,23.662 -23.82,0 -42.4968,-6.16125 -56.3289,-18.3433 -13.8321,-12.1645 -20.8359,-28.6647 -20.8359,-49.6586 0,-16.5002 5.51177,-31.3328 16.3422,-44.3399 10.9884,-13.1651 29.8232,-26.6636 56.9959,-40.6537l120.504 -65.3338c35.1595,-19.0103 60.489,-39.8462 75.9887,-62.8412 15.4997,-22.995 23.1705,-50.9926 23.1705,-84.1686 0,-28.6647 -8.33787,-55.3283 -24.8381,-79.8329 -16.6582,-24.6625 -38.3191,-42.6548 -65.0003,-53.9943 17.0093,-14.3411 29.5073,-30.3323 37.6696,-48.1665 8.17989,-17.6763 12.1645,-37.3361 12.1645,-58.839 0,-45.1649 -16.5002,-82.3255 -49.5006,-111.499 -33.1584,-29.1562 -75.4972,-43.6729 -127.332,-43.6729 -51.6597,0 -93.1559,14.8502 -124.155,44.6734 -31.1748,29.8408 -46.6745,69.4939 -46.6745,119.328z"
     id="path557" /></glyph>
   <glyph
   unicode="  "
   horiz-adv-x="499"
   id="glyph559"><path
     d="M286.998 199.336l0 -370.166 -73.1626 0 0 370.166 73.1626 0zm0 499.833l0 -370.166 -73.1626 0 0 370.166 73.1626 0z"
     id="path561" /></glyph>
   <glyph
   unicode="  "
   horiz-adv-x="602"
   id="glyph563"><path
     d="M350.998 0l-89.8383 0 0 274.834 -253.489 0 0 45.0069 225.158 0 -40.9872 61.9986 -184.17 0 0 44.9894 157.331 0 -157.331 252.33 111.324 0 187.172 -320.332 187.997 320.332 101.002 0 -153.329 -252.33 153.329 0 0 -44.9894 -181.169 0 -38.1611 -61.9986 219.33 0 0 -45.0069 -244.168 0 0 -274.834z"
     id="path565" /></glyph>
   <glyph
   unicode="  "
   horiz-adv-x="548"
   id="glyph567"><path
     d="M430.164 265.162l95.6661 -0.491495c-2.3346,-86.5032 -25.1716,-155.664 -68.6689,-207.341 -43.3218,-51.5017 -100.335,-77.3228 -170.988,-77.3228 -69.336,0 -124.173,26.4881 -164.511,79.3238 -40.4957,52.8358 -63.1572,128.333 -68.3354,226.667l-54.3278 0 18.9928 45.0069 31.8419 0 0 56.1533 -63.9997 0 18.9928 45.0069 48.5001 0c5.17825,100.002 28.6647,175.832 70.67,227.843 42.0053,51.8177 100.669,77.8318 175.832,77.8318 63.1747,0 114.343,-20.6779 153.505,-61.9986 39.3372,-41.3383 62.1742,-99.0012 68.6689,-172.848l-96.1751 0c-5.49422,50.5011 -19.5018,88.5043 -41.9877,114.343 -22.5035,25.6631 -52.6778,38.4946 -90.8389,38.4946 -45.4984,0 -80.1664,-18.3258 -103.828,-54.9948 -23.504,-36.4935 -37.0026,-92.84 -40.1797,-168.671l219.172 0 -18.9928 -45.0069 -202.18 0 0 -56.1533 176.342 0 -19.1683 -45.0069 -155.172 0c2.51014,-75.4972 15.6752,-131.668 39.3372,-168.671 23.504,-36.827 58.172,-55.3283 103.67,-55.3283 41.3383,0 74.1631,17.8343 98.6677,53.5028 24.329,35.6685 37.4941,85.5026 39.4952,149.66z"
     id="path569" /></glyph>
   <glyph
   unicode="  "
   horiz-adv-x="548"
   id="glyph571"><path
     d="M79.1659 -16.1667l-48.3245 71.337c40.9872,33.1584 71.3195,65.0003 91.1548,95.157 19.8353,30.3323 29.8408,59.8396 29.8408,88.5043 0,11.673 -1.84311,23.9955 -5.33624,36.827 -3.66866,12.8491 -8.82936,26.0141 -15.6752,39.3372l-104.829 0 0 50.3432 77.0068 0c-17.8343,29.9988 -30.8413,56.8204 -39.0037,80.4999 -8.16233,23.82 -12.1645,46.657 -12.1645,68.3354 0,56.3289 21.8364,103.986 65.6673,143.166 43.8309,38.9861 98.1586,58.4879 163.334,58.4879 69.336,0 124.489,-19.1683 165.494,-57.3294 41.0048,-38.3366 61.5071,-89.8383 61.5071,-154.663 0,-1.84311 -0.175534,-5.00272 -0.509049,-9.49639 -0.333515,-4.33569 -0.491495,-7.51286 -0.491495,-9.51395l-88.8378 0 0 8.33787c0,44.8314 -12.0065,79.6749 -35.8265,104.004 -24.0131,24.5046 -57.8385,36.6691 -101.336,36.6691 -38.8457,0 -70.8455,-11.673 -95.9996,-34.8435 -25.1716,-23.3285 -37.8451,-52.4847 -37.8451,-87.6617 0,-25.6631 15.8332,-69.336 47.3415,-130.826 3.15961,-6.51231 5.66975,-11.673 7.33732,-15.1661l157.156 0 0 -50.3432 -133.827 0c3.33515,-11.989 5.82773,-23.1705 7.33732,-33.1584 1.66757,-10.1634 2.49258,-18.8348 2.49258,-25.9966 0,-28.0152 -8.33787,-56.8379 -24.8381,-86.3452 -16.6582,-29.6653 -41.6542,-60.489 -75.1637,-92.3309 15.6752,8.33787 32.6669,14.6746 51.1682,18.6768 18.6768,4.16016 39.6707,6.16125 62.9992,6.16125 22.837,0 51.3437,-5.82773 85.5026,-17.5007 34.1765,-11.831 57.3294,-17.6763 69.336,-17.6763 12.6736,0 25.6631,2.51014 39.0037,7.51286 13.323,5.1607 27.6642,12.9895 42.9883,23.82l40.1797 -68.3179c-20.8359,-17.6763 -41.1803,-30.5078 -60.9981,-38.6702 -20.0109,-8.16233 -41.0048,-12.1645 -63.1747,-12.1645 -13.6741,0 -27.1727,1.33406 -40.4957,4.16016 -13.3406,2.8261 -28.1732,7.33732 -44.4979,13.8321l-45.8319 18.1678c-10.848,3.82664 -21.3449,6.82828 -31.9999,8.67138 -10.5145,2.00109 -20.8359,3.00163 -30.9993,3.00163 -23.6795,0 -46.341,-3.51068 -67.5104,-10.5145 -21.3274,-6.98626 -41.8298,-17.8167 -61.3316,-32.4914z"
     id="path573" /></glyph>
   <glyph
   unicode="  "
   horiz-adv-x="548"
   id="glyph575"><path
     d="M300.83 458.828c-7.4953,1.00054 -12.9895,1.66757 -16.3247,1.84311 -3.51068,0.157981 -6.67029,0.157981 -9.51395,0.157981 -43.6553,0 -78.1653,-17.5007 -103.319,-52.5022 -25.1716,-35.0015 -37.8451,-83.326 -37.8451,-145.167 0,-43.3218 4.84474,-78.8323 14.6746,-106.654 9.67193,-27.8397 25.1716,-51.0102 46.3234,-69.5115l106.005 371.834zm98.1762 -270.832l86.8191 0c-4.82719,-61.4896 -26.9971,-110.832 -66.3343,-147.659 -39.4952,-37.0026 -89.4873,-55.5039 -150.485,-55.5039 -10.6725,0 -20.5024,0.333515 -29.5073,1.15852 -8.82936,0.842563 -17.8343,2.17662 -26.5056,3.66866l-28.8227 -103.495 -46.0075 0 32.8424 118.661c-43.3394,22.17 -75.8307,54.3453 -97.5092,96.6666 -21.6609,42.3388 -32.4914,95.1746 -32.4914,158.174 0,84.3266 21.1694,151.995 63.4907,203.005 42.3388,50.8347 98.1762,76.3222 167.512,76.3222 7.82882,0 15.8332,-0.333515 24.1535,-1.00054 8.33787,-0.667029 16.8337,-1.66757 25.6806,-2.8261l26.3301 89.8383 45.8319 0 -28.6647 -101.178c36.6691,-14.3236 65.1582,-36.3356 85.5026,-65.8253 20.3268,-29.6653 31.6663,-66.0008 33.9834,-109.007l-87.8197 0c-1.00054,21.5029 -6.00326,40.0042 -14.8326,55.6619 -9.0049,15.6752 -22.5035,28.6823 -40.3377,39.0037l-106.497 -376.661c5.66975,-1.00054 10.9884,-1.84311 16.3247,-2.3346 5.51177,-0.491495 10.8305,-0.667029 16.5002,-0.667029 34.1765,0 62.6657,10.6725 85.3447,32.1754 22.8194,21.4854 37.9856,52.1512 45.4984,91.8219z"
     id="path577" /></glyph>
   <glyph
   unicode="  "
   horiz-adv-x="320"
   id="glyph579"><path
     d="M185.996 544.84l23.0125 -312.012 0 -232.828 -98.1762 0 0 232.828 23.9955 312.012 51.1682 0zm23.0125 174.323l0 -108.322 -98.1762 0 0 108.322 98.1762 0z"
     id="path581" /></glyph>
   <glyph
   unicode="  "
   horiz-adv-x="548"
   id="glyph583" />
   <glyph
   unicode="  "
   horiz-adv-x="524"
   id="glyph585"><path
     d="M323.334 524.829c0,-2.66812 0.157981,-6.33678 0.491495,-11.164 0.333515,-5.00272 0.509049,-8.49585 0.509049,-10.8305 0,-35.8265 -6.00326,-67.4928 -17.9922,-95.1746 -12.1821,-27.6642 -31.8419,-54.8193 -59.1725,-81.5005l-38.0031 -37.9856c-19.9933,-19.8353 -34.1589,-39.1792 -42.6723,-57.6805 -8.49585,-18.5013 -12.656,-39.3196 -12.656,-62.4901 0,-32.5089 10.6549,-58.839 31.9999,-78.8323 21.3274,-20.0109 49.5006,-29.9988 84.3266,-29.9988 42.6723,0 74.8302,13.1651 96.6666,39.3196 21.8364,26.1721 33.5095,66.0008 35.177,119.346l86.8191 0 0 -12.6736c0,-71.337 -19.3263,-126.49 -58.1544,-165.494 -38.6702,-39.1792 -93.507,-58.6635 -164.511,-58.6635 -62.4901,0 -112.658,17.1672 -150.327,51.4841 -37.8276,34.3345 -56.6624,79.8504 -56.6624,136.513 0,30.4903 6.16125,58.997 18.3258,85.3271 12.1645,26.5056 30.6658,51.3437 55.3283,74.8302l41.0048 39.0037c25.5051,23.9955 42.3388,45.3404 50.6767,63.9997 8.32031,18.5013 12.498,41.1627 12.498,67.8264 0,6.51231 -0.175534,11.515 -0.333515,15.0082 -0.175534,3.66866 -0.175534,6.82828 -0.175534,9.82991l86.8367 0zm3.00163 194.334l0 -108.322 -98.1762 0 0 108.322 98.1762 0z"
     id="path587" /></glyph>
   <glyph
   unicode="  "
   horiz-adv-x="858"
   id="glyph589"><path
     d="M582.001 141.164l138.163 0 0 173.831 -138.163 -173.831zm138.163 -141.164l0 96.1751 -191.332 0 0 49.8166 191.332 233.846 56.6624 0 0 -238.674 61.9986 0 0 -44.9894 -61.9986 0 0 -96.1751 -56.6624 0zm-540.996 -19.9933l438.993 719.163 60.9981 0 -438.993 -719.163 -60.9981 0zm-165.002 440.994l57.6629 0c0.667029,-27.3307 9.16288,-48.5001 25.3296,-63.5082 16.3422,-14.9906 39.3372,-22.4859 68.8445,-22.4859 28.9982,0 51.5017,6.82828 67.6684,20.4848 16.1667,13.6741 24.171,32.5089 24.171,56.6799 0,21.8364 -7.84637,38.4946 -23.6795,50.3256 -15.8332,11.673 -38.4946,17.5007 -68.1599,17.5007 -8.16233,0 -14.4991,0 -19.0103,-0.157981 -4.65165,-0.175534 -8.98734,-0.509049 -13.323,-0.842563l0.491495 45.0069c2.66812,-0.333515 5.51177,-0.667029 8.33787,-0.842563 3.00163,-0.157981 6.33678,-0.157981 10.339,-0.157981 31.8243,0 54.9948,4.66921 69.1604,14.1656 14.1656,9.49639 21.1694,24.6625 21.1694,45.8319 0,19.8353 -6.82828,35.1595 -20.3268,45.8319 -13.4986,10.8305 -32.6669,16.1667 -57.8385,16.1667 -27.6642,0 -48.6756,-7.00381 -62.8412,-20.9939 -14.1656,-14.0076 -21.1694,-34.668 -21.1694,-61.9986l-56.1533 0 0 2.00109c0,38.6526 12.3225,69.3184 37.1606,91.9974 24.6625,22.6614 57.9965,34.0009 100.002,34.0009 44.6734,0 79.3414,-9.0049 104.004,-27.1727 24.8205,-17.9922 37.1606,-43.6729 37.1606,-76.8313 0,-19.1683 -4.66921,-35.5105 -13.8321,-48.6756 -9.33841,-13.1651 -22.995,-23.3285 -41.3383,-30.4903 23.504,-7.4953 41.1803,-19.1683 53.0113,-35.177 11.831,-15.8332 17.8343,-35.6685 17.8343,-59.4885 0,-37.8451 -14.1656,-67.8439 -42.6723,-90.3298 -28.5067,-22.5035 -66.4923,-33.6674 -114.009,-33.6674 -44.9894,0 -80.8334,11.831 -107.655,35.3175 -26.8392,23.6795 -40.3377,55.1704 -40.3377,94.5075l0 3.00163z"
     id="path591" /></glyph>
   <glyph
   unicode="  "
   horiz-adv-x="857"
   id="glyph593"><path
     d="M533.167 0l0 3.00163c0,38.0031 10.1634,69.8275 30.5078,95.6661 20.3268,25.6631 56.1533,50.9926 107.164,76.1642l37.1606 18.0098c21.9944,10.8305 38.3366,22.995 49.0091,36.4935 10.4969,13.4986 15.8332,28.9982 15.8332,46.657 0,20.8359 -7.84637,37.5116 -23.6795,50.3432 -15.8332,12.656 -36.827,18.9928 -63.1572,18.9928 -26.9971,0 -48.1665,-7.9868 -63.6662,-24.1535 -15.4997,-16.1667 -23.1705,-38.3366 -23.1705,-66.3343l0 -4.84474 -57.1714 0 0 6.84583c0,41.6542 13.1651,74.4967 39.3372,98.4922 26.1721,23.8375 61.6651,35.8265 106.672,35.8265 43.3218,0 78.1653,-10.4969 104.495,-31.4908 26.3301,-20.9939 39.4952,-49.0091 39.4952,-83.8351 0,-26.6636 -7.67084,-50.0097 -22.995,-70.003 -15.3417,-19.9933 -39.0037,-37.6696 -71.337,-52.9937l-36.4935 -16.6757c-34.1765,-15.8332 -58.997,-30.4903 -74.6722,-43.8309 -15.6576,-13.323 -25.6631,-28.1557 -30.3323,-44.4979l235.83 0 0 -47.833 -298.829 0zm-354 -19.9933l438.993 719.163 60.9981 0 -438.993 -719.163 -60.9981 0zm-17.9922 318.823l0 277.344 -102.003 0 0 38.4946c37.0026,0.667029 65.0003,7.00381 83.6595,18.9928 18.6593,12.1645 29.6653,30.8413 33.0004,56.3464l43.4973 0 0 -391.178 -58.1544 0z"
     id="path595" /></glyph>
   <glyph
   unicode="  "
   horiz-adv-x="857"
   id="glyph597"><path
     d="M582.001 141.164l138.163 0 0 173.831 -138.163 -173.831zm138.163 -141.164l0 96.1751 -191.332 0 0 49.8166 191.332 233.846 56.6624 0 0 -238.674 61.9986 0 0 -44.9894 -61.9986 0 0 -96.1751 -56.6624 0zm-540.996 -19.9933l438.993 719.163 60.9981 0 -438.993 -719.163 -60.9981 0zm-17.9922 318.823l0 277.344 -102.003 0 0 38.4946c37.0026,0.667029 65.0003,7.00381 83.6595,18.9928 18.6593,12.1645 29.6653,30.8413 33.0004,56.3464l43.4973 0 0 -391.178 -58.1544 0z"
     id="path599" /></glyph>
   <glyph
   unicode="  "
   horiz-adv-x="443"
   id="glyph601"><path
     d="M247.503 97.1581l0 86.0117 104.337 80.9914 -104.337 81.009 0 85.9941 158.156 -118.17 0 -97.1581 -158.156 -118.679zm-200.671 0l0 86.0117 105.004 80.9914 -105.004 81.009 0 85.9941 158.174 -118.17 0 -97.1581 -158.174 -118.679z"
     id="path603" /></glyph>
   <glyph
   unicode="  "
   horiz-adv-x="435"
   id="glyph605"><path
     d="M54.1698 277.835l327.494 0 0 -54.6613 -327.494 0 0 54.6613zm165.002 398.006c-38.1787,0 -67.0014,-11.515 -86.6787,-34.51 -19.6598,-22.837 -29.4897,-56.3289 -29.4897,-100.335 0,-44.4979 9.98789,-78.4988 29.8232,-102.003 19.8353,-23.4865 48.5001,-35.1595 86.3452,-35.1595 37.0026,0 65.4918,11.831 85.1691,35.335 19.6598,23.662 29.4897,57.6629 29.4897,101.827 0,44.0064 -9.82991,77.4983 -29.3317,100.335 -19.5018,22.995 -47.991,34.51 -85.3271,34.51zm-194.334 -135.846c0,61.9986 17.1672,110.341 51.3262,145.342 34.1765,35.0015 81.3425,52.5022 141.498,52.5022 60.8401,0 108.34,-17.3428 142.341,-52.1687 34.0009,-34.8435 50.9926,-83.3436 50.9926,-145.676 0,-62.1566 -16.9917,-110.657 -50.8347,-145.658 -33.8254,-35.0015 -80.8334,-52.5022 -140.989,-52.5022 -61.5071,0 -109.34,17.3252 -143.341,51.9932 -34.0009,34.668 -50.9926,83.5016 -50.9926,146.167z"
     id="path607" /></glyph>
   <glyph
   unicode="  "
   horiz-adv-x="361"
   id="glyph609"><path
     d="M169.004 272.008l0 295.986 -107.006 0 0 43.0058c38.4946,0.667029 67.4928,7.33732 87.1702,20.1689 19.6598,13.0071 31.3328,32.8249 35.0015,59.8396l44.8314 0 0 -419 -59.9975 0z"
     id="path611" /></glyph>
   <glyph
   unicode="  "
   horiz-adv-x="499"
   id="glyph613"><path
     d="M141.164 -198.336l-1.00054 45.3404c24.5046,-5.84528 47.008,-10.339 68.0019,-13.3406 20.8359,-3.15961 38.0031,-4.66921 51.6597,-4.66921 16.6757,0 29.3493,3.17717 38.1787,9.33841 8.82936,6.16125 13.1651,15.0082 13.1651,26.8392 0,13.323 -5.00272,22.995 -15.1661,29.1562 -10.0054,6.1788 -25.6631,9.33841 -46.8325,9.33841 -6.1788,0 -11.006,0 -14.4991,-0.175534 -3.33515,-0.157981 -6.51231,-0.315961 -9.49639,-0.315961l0 87.9952 36.16 0 0 -45.4984 13.6566 0c33.1759,0 58.681,-6.67029 76.3398,-19.8353 17.8343,-13.1651 26.6636,-31.9999 26.6636,-56.8379 0,-28.5067 -9.82991,-49.9921 -29.3317,-64.3332 -19.5018,-14.3411 -48.658,-21.5029 -87.3282,-21.5029 -16.0087,0 -34.1765,1.50959 -54.5033,4.66921 -20.3268,3.00163 -42.1633,7.67084 -65.6673,13.8321z"
     id="path615" /></glyph>
   <glyph
   unicode="  "
   horiz-adv-x="274"
   id="glyph617"><path
     d="M77.1648 342.836c0,16.8337 5.82773,31.1573 17.3428,42.6723 11.4975,11.4975 25.8211,17.3252 42.8303,17.3252 16.8337,0 31.3328,-5.82773 43.1638,-17.3252 11.831,-11.515 17.8343,-25.8386 17.8343,-42.6723 0,-16.6757 -6.00326,-30.8413 -17.8343,-42.3388 -11.831,-11.4975 -26.3301,-17.3252 -43.1638,-17.3252 -17.0093,0 -31.3328,5.82773 -42.8303,17.3252 -11.515,11.4975 -17.3428,25.6631 -17.3428,42.3388z"
     id="path619" /></glyph>
   <glyph
   unicode="  "
   horiz-adv-x="499"
   id="glyph621"><path
     d="M468.834 680.159l-58.6635 0 0 -680.159 -55.1704 0 0 680.159 -85.9941 0 0 -680.159 -55.1704 0 0 381.839c-55.3283,2.66812 -99.5103,19.3263 -132.335,49.9921 -32.8424,30.8413 -49.3251,70.828 -49.3251,119.995 0,51.0102 17.4832,92.1729 52.4847,123.506 35.0015,31.1748 81.5005,46.8325 139.514,46.8325l244.659 0 0 -42.0053z"
     id="path623" /></glyph>
   <glyph
   unicode="  "
   horiz-adv-x="562"
   id="glyph625"><path
     d="M187.997 523.004l-62.9992 -293.001c-2.3346,-10.339 -4.00218,-20.8359 -5.1607,-31.5084 -1.17608,-10.4969 -1.66757,-21.6609 -1.66757,-33.4919 0,-32.1754 8.49585,-56.9959 25.3296,-74.6722 17.0093,-17.5007 41.0048,-26.3301 72.3376,-26.3301 42.9883,0 76.8313,15.0082 101.827,45.1649 24.8381,30.1743 45.0069,80.8334 60.3311,152.17l56.1709 261.669 86.8367 0 -76.1642 -357.51c-0.333515,-1.82555 -1.00054,-5.1607 -2.00109,-9.65437 -5.84528,-28.3312 -8.67138,-46.6745 -8.67138,-54.6789 0,-12.1645 2.66812,-20.6604 8.00435,-25.6631 5.33624,-5.00272 14.3236,-7.67084 26.9971,-7.67084 4.00218,0 7.00381,0.175534 9.16288,0.333515 2.00109,0.175534 4.33569,0.333515 6.49476,0.667029l-15.1661 -69.8275c-7.65329,-1.66757 -15.8332,-2.8261 -24.329,-3.66866 -8.49585,-0.82501 -17.9922,-1.15852 -28.3312,-1.15852 -20.5024,0 -36.3356,4.66921 -47.324,14.1656 -11.1815,9.49639 -19.5018,25.6631 -25.5051,48.8336 -14.4991,-21.5029 -32.8424,-37.5116 -54.8368,-48.1665 -21.9944,-10.4969 -47.833,-15.8332 -77.4983,-15.8332 -26.6636,0 -49.8341,4.49367 -69.6695,13.4986 -19.9933,8.82936 -38.3366,23.3285 -55.3283,43.1638l-53.6783 -258.843 -88.3287 0 155.33 732.012 87.8372 0z"
     id="path627" /></glyph>
   <glyph
   unicode="  "
   horiz-adv-x="499"
   id="glyph629"><path
     d="M180.168 594.165l99.6682 170.005 98.1586 0 -139.163 -170.005 -58.6635 0z"
     id="path631" /></glyph>
   <glyph
   unicode="  "
   horiz-adv-x="361"
   id="glyph633"><path
     d="M15.1661 402.833l59.506 0c1.33406,-29.8408 10.4969,-52.8358 27.3307,-68.8269 16.9917,-15.8332 40.8292,-23.8375 71.8285,-23.8375 29.9988,0 53.6608,7.33732 71.0035,22.17 17.5007,14.8326 26.1721,35.1595 26.1721,60.8226 0,23.0125 -8.5134,41.0048 -25.3471,53.6783 -16.9917,12.656 -40.8292,18.9928 -71.8285,18.9928 -8.82936,0 -15.4997,0 -20.1689,-0.157981 -4.82719,-0.175534 -8.98734,-0.333515 -12.498,-0.333515l0 47.324c2.66812,0 5.33624,-0.157981 8.33787,-0.333515 2.8261,-0.157981 6.49476,-0.157981 10.6725,-0.157981 33.3339,0 57.1539,4.98517 71.8285,15.1661 14.6571,9.98789 21.9944,26.6636 21.9944,49.8341 0,20.8183 -7.00381,36.827 -20.9939,48.1665 -14.0076,11.164 -34.0009,16.8337 -60.1731,16.8337 -29.1562,0 -51.3262,-7.51286 -66.3343,-22.5035 -14.9906,-15.0082 -22.5035,-37.0026 -22.5035,-66.3343l-58.1544 0 0 3.00163c0,41.3207 12.9895,73.9876 39.1616,98.3342 25.9966,24.1535 60.9981,36.3356 105.004,36.3356 46.8325,0 82.9925,-9.84746 108.656,-29.3493 25.5051,-19.4843 38.3366,-46.9905 38.3366,-82.4835 0,-20.1689 -4.82719,-37.3361 -14.3236,-51.5017 -9.67193,-14.1656 -24.0131,-25.0136 -42.8479,-32.5089 24.6801,-8.16233 43.5149,-20.8359 56.1709,-38.1611 12.6736,-17.1672 19.0103,-38.4946 19.0103,-63.8417 0,-40.4957 -15.0082,-72.6535 -45.0069,-97.0001 -29.8408,-24.1535 -69.8275,-36.3356 -119.995,-36.3356 -47.166,0 -84.8356,12.6736 -112.833,38.0031 -27.9977,25.5051 -42.0053,59.506 -42.0053,102.003l0 3.00163z"
     id="path635" /></glyph>
   <glyph
   unicode="  "
   horiz-adv-x="361"
   id="glyph637"><path
     d="M19.9933 272.008l0 3.82664c0,40.1622 10.848,74.0052 32.5089,101.669 21.6609,27.6642 59.506,54.8368 113.5,81.5005l39.1616 19.1683c22.995,11.6555 40.0042,24.8205 50.6767,39.4952 10.8305,14.6571 16.1667,31.3328 16.1667,50.3256 0,22.3455 -8.17989,40.3377 -24.6801,53.8363 -16.5002,13.4986 -38.4946,20.3444 -66.1588,20.3444 -28.3312,0 -50.6767,-8.67138 -66.8434,-25.8386 -16.3247,-17.3428 -24.487,-41.0048 -24.487,-71.337l0 -4.82719 -59.9975 0 0 6.82828c0,44.6734 13.8321,79.6749 41.3207,105.496 27.5062,25.6631 64.8423,38.5122 112.008,38.5122 45.8319,0 82.659,-11.3395 110.323,-34.0009 27.6817,-22.5035 41.5138,-52.6778 41.5138,-90.0139 0,-28.3312 -8.00435,-53.3272 -24.171,-74.8302 -16.1667,-21.5029 -41.1627,-40.1622 -75.0057,-56.1709l-39.0037 -17.9922c-35.1595,-16.9917 -61.1561,-32.6669 -77.9898,-47.008 -16.6757,-14.3236 -27.6642,-29.8232 -32.8424,-46.8325l249.013 0 0 -52.1512 -315.013 0z"
     id="path639" /></glyph>
   <glyph
   unicode="  "
   horiz-adv-x="832"
   id="glyph641"><path
     d="M709 82.9925l0 -68.8269 -585.002 0 0 68.8269 585.002 0zm-257.824 499.008l0 -166.003 257.824 0 0 -67.8264 -257.824 0 0 -166.003 -69.336 0 0 166.003 -257.842 0 0 67.8264 257.842 0 0 166.003 69.336 0z"
     id="path643" /></glyph>
   <glyph
   unicode="  "
   horiz-adv-x="329"
   id="glyph645"><path
     d="M259.001 571.328c0,26.1721 -9.0049,48.5001 -27.1727,66.6678 -17.9922,18.1678 -40.3202,27.1727 -66.6678,27.1727 -26.3301,0 -48.8336,-9.0049 -67.4928,-27.1727 -18.5013,-18.1678 -27.8397,-40.4957 -27.8397,-66.6678 0,-26.3301 9.33841,-48.658 27.8397,-67.3349 18.6593,-18.6593 41.1627,-27.9977 67.4928,-27.9977 26.3477,0 48.6756,9.33841 66.6678,27.9977 18.1678,18.6768 27.1727,41.0048 27.1727,67.3349zm-94.174 139.672c38.5122,0 71.337,-13.8321 98.8432,-41.3383 27.4886,-27.4886 41.1627,-60.6646 41.1627,-99.8262 0,-38.6702 -13.6741,-71.6706 -41.0048,-98.8432 -27.3307,-27.1551 -60.489,-40.8292 -99.8262,-40.8292 -39.3372,0 -72.4956,13.4986 -99.4927,40.4957 -27.0147,27.0147 -40.5133,60.1731 -40.5133,99.1767 0,39.1616 13.6741,72.3376 41.1627,99.8262 27.5062,27.5062 60.6821,41.3383 99.6682,41.3383z"
     id="path647" /></glyph>
   <glyph
   unicode="  "
   horiz-adv-x="256"
   id="glyph649"><path
     d="M79.1659 0l0 719.163 97.6672 0 0 -719.163 -97.6672 0zm85.8362 810.002l0 103.003 88.8378 0 0 -103.003 -88.8378 0zm-161.175 0l0 103.003 88.8378 0 0 -103.003 -88.8378 0z"
     id="path651" /></glyph>
   <glyph
   unicode="  "
   horiz-adv-x="256"
   id="glyph653"><path
     d="M79.1659 0l0 719.163 97.6672 0 0 -719.163 -97.6672 0zm-94.332 782.162l96.1576 170.005 95.8416 0 96.1751 -170.005 -60.0151 0 -83.993 110.832 -84.9936 -110.832 -59.1725 0z"
     id="path655" /></glyph>
   <glyph
   unicode="  "
   horiz-adv-x="256"
   id="glyph657"><path
     d="M79.1659 0l0 719.163 97.6672 0 0 -719.163 -97.6672 0zm-20.1689 782.162l99.6682 170.005 98.1762 0 -139.181 -170.005 -58.6635 0z"
     id="path659" /></glyph>
   <glyph
   unicode="  "
   horiz-adv-x="256"
   id="glyph661"><path
     d="M79.1659 0l0 719.163 97.6672 0 0 -719.163 -97.6672 0zm119.504 782.162l-58.6635 0 -139.181 170.005 98.1762 0 99.6682 -170.005z"
     id="path663" /></glyph>
   <glyph
   unicode="  "
   horiz-adv-x="639"
   id="glyph665"><path
     d="M77.1648 0l0 719.163 512.665 0 0 -89.3293 -415.998 0 0 -214.836 384.332 0 0 -83.993 -384.332 0 0 -241.166 424.336 0 0 -89.8383 -521.003 0zm288.174 810.002l0 103.003 88.8202 0 0 -103.003 -88.8202 0zm-161.175 0l0 103.003 88.8378 0 0 -103.003 -88.8378 0z"
     id="path667" /></glyph>
   <glyph
   unicode="  "
   horiz-adv-x="639"
   id="glyph669"><path
     d="M77.1648 0l0 719.163 512.665 0 0 -89.3293 -415.998 0 0 -214.836 384.332 0 0 -83.993 -384.332 0 0 -241.166 424.336 0 0 -89.8383 -521.003 0zm108.006 782.162l96.1576 170.005 95.8416 0 96.1576 -170.005 -59.9975 0 -83.993 110.832 -85.0111 -110.832 -59.155 0z"
     id="path671" /></glyph>
   <glyph
   unicode="  "
   horiz-adv-x="639"
   id="glyph673"><path
     d="M77.1648 0l0 719.163 512.665 0 0 -89.3293 -415.998 0 0 -214.836 384.332 0 0 -83.993 -384.332 0 0 -241.166 424.336 0 0 -89.8383 -521.003 0zm182.169 782.162l99.6682 170.005 98.1586 0 -139.163 -170.005 -58.6635 0z"
     id="path675" /></glyph>
   <glyph
   unicode="  "
   horiz-adv-x="639"
   id="glyph677"><path
     d="M77.1648 0l0 719.163 512.665 0 0 -89.3293 -415.998 0 0 -214.836 384.332 0 0 -83.993 -384.332 0 0 -241.166 424.336 0 0 -89.8383 -521.003 0zm321.842 782.162l-58.681 0 -139.163 170.005 98.1762 0 99.6682 -170.005z"
     id="path679" /></glyph>
   <glyph
   unicode="  "
   horiz-adv-x="712"
   id="glyph681"><path
     d="M580 267.163l94.6655 0c-3.00163,-81.3249 -30.6658,-148.168 -82.9925,-200.161 -52.3443,-52.1687 -121.347,-81.167 -207.007,-86.9947l0 -34.3345 13.1651 0c33.1759,0 58.839,-6.67029 76.8313,-20.0109 18.1678,-13.323 27.1727,-32.1578 27.1727,-56.6624 0,-28.8402 -9.67193,-50.5011 -28.9982,-64.6667 -19.5018,-14.1656 -48.3421,-21.1694 -86.6612,-21.1694 -17.0093,0 -35.6685,1.50959 -56.1709,4.66921 -20.5024,3.00163 -41.8298,7.67084 -63.9997,13.8321l-1.00054 45.3404c25.3296,-5.84528 48.658,-10.339 69.8275,-13.3406 21.1694,-3.15961 37.6696,-4.66921 49.8341,-4.66921 16.5002,0 29.1738,3.17717 38.0031,9.33841 8.82936,6.16125 13.1651,15.0082 13.1651,26.8392 0,12.9895 -4.82719,22.6614 -14.3411,28.9982 -9.65437,6.33678 -24.1535,9.49639 -43.6553,9.49639 -5.84528,0 -11.006,0 -15.1661,-0.175534 -4.17771,-0.157981 -8.49585,-0.315961 -12.6736,-0.315961l0 76.8313c-95.6661,6.16125 -170.338,43.4973 -223.823,111.833 -53.5028,68.3354 -80.3419,161.158 -80.3419,278.327 0,112.008 30.1743,201.162 90.5054,267.83 60.489,66.5099 141.832,99.8438 244.501,99.8438 81.3249,0 147.993,-21.1694 200.161,-63.6662 51.9932,-42.5143 81.6584,-99.5103 88.8378,-171.181l-95.6661 0c-8.84692,47.4995 -30.1743,84.1686 -64.1753,109.674 -34.0009,25.5051 -78.3233,38.3366 -133.002,38.3366 -73.3206,0 -130.159,-25.5051 -170.496,-76.6733 -40.3377,-51.1682 -60.5066,-123.155 -60.5066,-216.328 0,-87.8372 21.0114,-158.332 63.0167,-211.343 41.9877,-53.1517 97.6496,-79.6574 166.986,-79.6574 58.839,0 107.181,18.3258 144.675,55.1704 37.6696,36.827 57.3294,85.1691 59.3305,144.991z"
     id="path683" /></glyph>
   <glyph
   unicode="  "
   horiz-adv-x="948"
   id="glyph685"><path
     d="M209.008 298.829l203.163 0 0 337.341 -72.3376 0 -130.826 -337.341zm-224.175 -298.829l297.495 719.163 618.512 0 0 -89.3293 -393.003 0 0 -214.836 361.161 0 0 -83.993 -361.161 0 0 -241.166 397.83 0 0 -89.8383 -493.496 0 0 214.836 -236.339 0 -83.993 -214.836 -107.006 0z"
     id="path687" /></glyph>
   <glyph
   unicode="  "
   horiz-adv-x="637"
   id="glyph689"><path
     d="M265.162 853.008c0,-15.0082 5.17825,-27.6817 15.6752,-38.3366 10.3214,-10.4969 22.995,-15.8332 38.0031,-15.8332 14.9906,0 27.6642,5.33624 38.3191,16.1667 10.5145,10.6549 15.8332,23.3285 15.8332,38.0031 0,14.6571 -5.31868,27.3307 -16.1667,37.9856 -10.6549,10.848 -23.3285,16.1667 -37.9856,16.1667 -14.6746,0 -27.1727,-5.31868 -37.8451,-16.1667 -10.4969,-10.6549 -15.8332,-23.3285 -15.8332,-37.9856zm-57.1539 0c0,30.8238 10.6549,56.9959 32.1578,78.1653 21.5029,21.1519 47.6751,31.6663 78.6744,31.6663 31.1573,0 57.4874,-10.5145 78.6568,-31.6663 21.1694,-21.1694 31.6663,-47.3415 31.6663,-78.1653 0,-31.3328 -10.6549,-57.505 -31.9999,-78.8323 -21.3274,-21.3449 -47.4995,-32.0174 -78.3233,-32.0174 -30.6658,0 -56.6799,10.848 -78.3409,32.5089 -21.6609,21.6609 -32.4914,47.6751 -32.4914,78.3409zm-1.00054 -554.179l222.156 0 -111.324 317.33 -110.832 -317.33zm-210.009 -298.829l267.163 719.163 107.831 0 268.005 -719.163 -105.829 0 -76.1642 214.836 -279.836 0 -75.1637 -214.836 -106.005 0z"
     id="path691" /></glyph>
   <glyph
   unicode="  "
   horiz-adv-x="637"
   id="glyph693"><path
     d="M205.006 298.829l224.157 0 -111.324 317.33 -112.833 -317.33zm-208.008 -298.829l267.163 719.163 107.831 0 268.005 -719.163 -106.005 0 -76.1642 214.836 -282.996 0 -76.6733 -214.836 -101.16 0zm358.002 810.002l0 103.003 88.8378 0 0 -103.003 -88.8378 0zm-161.175 0l0 103.003 88.8378 0 0 -103.003 -88.8378 0z"
     id="path695" /></glyph>
   <glyph
   unicode="  "
   horiz-adv-x="637"
   id="glyph697"><path
     d="M205.006 298.829l224.157 0 -111.324 317.33 -112.833 -317.33zm-208.008 -298.829l267.163 719.163 107.831 0 268.005 -719.163 -106.005 0 -76.1642 214.836 -282.996 0 -76.6733 -214.836 -101.16 0zm465.007 917.007c-6.51231,-32.8424 -17.8343,-57.8385 -34.1765,-75.1812 -16.3247,-17.1672 -37.0026,-25.8211 -61.9986,-25.8211 -4.33569,0 -9.0049,0.333515 -14.4991,1.15852 -5.33624,0.842563 -11.164,2.00109 -17.3252,3.66866l-47.3415 13.1651c-4.16016,1.17608 -8.33787,2.17662 -12.498,2.84365 -4.00218,0.667029 -7.82882,1.00054 -11.3395,1.00054 -9.82991,0 -18.5013,-2.84365 -25.9966,-8.5134 -7.4953,-5.66975 -13.4986,-13.9901 -17.9922,-24.9961l-43.0058 0c5.82773,31.8419 17.0093,56.3289 33.1759,73.6716 16.3247,17.1672 36.6515,25.8211 61.1561,25.8211 5.49422,0 10.6725,-0.333515 15.4997,-0.982991 5.00272,-0.667029 9.33841,-1.66757 13.1651,-2.84365l48.3421 -14.1656c5.00272,-1.15852 9.49639,-2.15907 13.6566,-2.8261 4.33569,-0.667029 8.33787,-1.00054 12.34,-1.00054 11.006,0 20.3268,3.00163 27.8397,8.82936 7.4953,5.82773 13.4986,14.4991 17.9922,26.1721l43.0058 0z"
     id="path699" /></glyph>
   <glyph
   unicode="  "
   horiz-adv-x="637"
   id="glyph701"><path
     d="M205.006 298.829l224.157 0 -111.324 317.33 -112.833 -317.33zm-208.008 -298.829l267.163 719.163 107.831 0 268.005 -719.163 -106.005 0 -76.1642 214.836 -282.996 0 -76.6733 -214.836 -101.16 0zm177.834 782.162l96.1751 170.005 95.824 0 96.1751 -170.005 -59.9975 0 -84.0106 110.832 -84.9936 -110.832 -59.1725 0z"
     id="path703" /></glyph>
   <glyph
   unicode="  "
   horiz-adv-x="637"
   id="glyph705"><path
     d="M205.006 298.829l224.157 0 -111.324 317.33 -112.833 -317.33zm-208.008 -298.829l267.163 719.163 107.831 0 268.005 -719.163 -106.005 0 -76.1642 214.836 -282.996 0 -76.6733 -214.836 -101.16 0zm251.997 782.162l99.6682 170.005 98.1762 0 -139.181 -170.005 -58.6635 0z"
     id="path707" /></glyph>
   <glyph
   unicode="  "
   horiz-adv-x="637"
   id="glyph709"><path
     d="M205.006 298.829l224.157 0 -111.324 317.33 -112.833 -317.33zm-208.008 -298.829l267.163 719.163 107.831 0 268.005 -719.163 -106.005 0 -76.1642 214.836 -282.996 0 -76.6733 -214.836 -101.16 0zm391.669 782.162l-58.6635 0 -139.163 170.005 98.1586 0 99.6682 -170.005z"
     id="path711" /></glyph>
   <glyph
   unicode="  "
   horiz-adv-x="538"
   id="glyph713"><path
     d="M66.8258 0l0 512.173c0,70.6525 17.5007,124.489 52.3443,161.491 34.826,36.827 85.3271,55.3283 151.837,55.3283 59.664,0 107.322,-16.5002 143.166,-49.5006 35.8265,-33.1584 53.6608,-76.9892 53.6608,-131.651 0,-36.1776 -6.49476,-66.6678 -19.5018,-91.5059 -12.9895,-24.8381 -32.4914,-43.3394 -58.172,-55.5039 34.51,-11.3395 61.5071,-32.3334 80.8334,-63.1572 19.3439,-30.8413 28.9982,-67.6684 28.9982,-110.674 0,-71.6706 -20.1513,-130.176 -60.3311,-175.832 -40.1622,-45.4984 -91.3304,-68.3354 -153.663,-68.3354 -6.49476,0 -14.1656,0.509049 -23.3285,1.66757 -9.16288,1.15852 -20.9939,3.00163 -35.6685,5.66975l0 81.5005c7.82882,-2.00109 15.1661,-3.33515 22.17,-4.33569 7.00381,-1.00054 13.6566,-1.50959 19.8353,-1.50959 40.9872,0 74.4967,14.0076 100.335,41.8473 25.8211,27.8221 38.8281,64.1577 38.8281,108.989 0,46.341 -13.0071,80.4999 -39.0037,102.845 -26.1721,22.3279 -66.1588,33.4919 -120.171,33.4919l-15.1661 0 0 72.8291 15.1661 0c42.6723,0 75.0057,9.67193 97.0001,28.9982 22.012,19.3439 33.0004,47.833 33.0004,85.1691 0,34.1765 -9.98789,61.3316 -29.8232,81.5005 -19.8353,20.1689 -46.499,30.3323 -80.1664,30.3323 -39.6707,0 -68.8445,-12.1645 -87.5037,-36.6691 -18.5013,-24.329 -27.8397,-62.9992 -27.8397,-116.151l0 -499.008 -86.8367 0z"
     id="path715" /></glyph>
   <glyph
   unicode="  "
   horiz-adv-x="629"
   id="glyph717"><path
     d="M77.1648 0l0 719.163 97.6672 0 0 -140.164 168.004 0c44.8314,0 78.1653,-2.00109 99.8262,-5.82773 21.6785,-4.00218 40.6712,-10.339 57.3294,-19.0103 29.3493,-15.3241 51.8352,-37.4941 67.3349,-66.6678 15.6752,-29.1562 23.504,-63.4907 23.504,-102.828 0,-37.4941 -7.82882,-70.3365 -23.504,-98.6677 -15.4997,-28.3312 -38.3191,-50.9926 -68.3179,-68.3354 -17.1672,-9.49639 -37.5116,-16.3247 -61.0156,-20.5024 -23.4865,-4.16016 -61.6651,-6.31923 -114.834,-6.31923l-148.326 0 0 -190.841 -97.6672 0zm97.6672 275.834l164.001 0c56.3289,0 95.9996,8.33787 118.837,25.1716 22.995,16.6582 34.4924,44.6559 34.4924,83.6595 0,38.6702 -11.164,66.6678 -33.6674,83.6595 -22.5035,17.1672 -59.822,25.6806 -112.324,25.6806l-171.339 0 0 -218.171z"
     id="path719" /></glyph>
   <glyph
   unicode="  "
   horiz-adv-x="602"
   id="glyph721"><path
     d="M355.825 0l-98.1586 0 0 287.999 -266.496 431.164 122.488 0 192.35 -340.325 190.999 340.325 114.659 0 -255.841 -424.336 0 -294.827zm-123.822 782.162l99.6682 170.005 98.1586 0 -139.163 -170.005 -58.6635 0z"
     id="path723" /></glyph>
   <glyph
   unicode="  "
   horiz-adv-x="708"
   id="glyph725"><path
     d="M73.1626 272.833l0 446.33 97.6672 0 0 -447.331c0,-67.3349 14.8326,-117.169 44.6734,-149.327 29.8232,-32.1754 75.9887,-48.3421 138.496,-48.3421 61.8407,0 107.831,16.3422 138.338,49.0091 30.4903,32.8249 45.6564,82.3255 45.6564,148.66l0 447.331 98.1762 0 0 -446.33c0,-96.3331 -24.8381,-169.162 -74.4967,-218.663 -49.6761,-49.5006 -122.681,-74.1631 -219.014,-74.1631 -89.8208,0 -157.156,24.329 -202.163,73.1626 -44.8314,48.8336 -67.3349,122.172 -67.3349,219.663zm317.998 537.169l0 103.003 88.8378 0 0 -103.003 -88.8378 0zm-161.158 0l0 103.003 88.8378 0 0 -103.003 -88.8378 0z"
     id="path727" /></glyph>
   <glyph
   unicode="  "
   horiz-adv-x="708"
   id="glyph729"><path
     d="M73.1626 272.833l0 446.33 97.6672 0 0 -447.331c0,-67.3349 14.8326,-117.169 44.6734,-149.327 29.8232,-32.1754 75.9887,-48.3421 138.496,-48.3421 61.8407,0 107.831,16.3422 138.338,49.0091 30.4903,32.8249 45.6564,82.3255 45.6564,148.66l0 447.331 98.1762 0 0 -446.33c0,-96.3331 -24.8381,-169.162 -74.4967,-218.663 -49.6761,-49.5006 -122.681,-74.1631 -219.014,-74.1631 -89.8208,0 -157.156,24.329 -202.163,73.1626 -44.8314,48.8336 -67.3349,122.172 -67.3349,219.663zm137.829 509.33l96.1751 170.005 95.8416 0 96.1576 -170.005 -59.9975 0 -84.0106 110.832 -84.9936 -110.832 -59.1725 0z"
     id="path731" /></glyph>
   <glyph
   unicode="  "
   horiz-adv-x="708"
   id="glyph733"><path
     d="M73.1626 272.833l0 446.33 97.6672 0 0 -447.331c0,-67.3349 14.8326,-117.169 44.6734,-149.327 29.8232,-32.1754 75.9887,-48.3421 138.496,-48.3421 61.8407,0 107.831,16.3422 138.338,49.0091 30.4903,32.8249 45.6564,82.3255 45.6564,148.66l0 447.331 98.1762 0 0 -446.33c0,-96.3331 -24.8381,-169.162 -74.4967,-218.663 -49.6761,-49.5006 -122.681,-74.1631 -219.014,-74.1631 -89.8208,0 -157.156,24.329 -202.163,73.1626 -44.8314,48.8336 -67.3349,122.172 -67.3349,219.663zm212.01 509.33l99.6682 170.005 98.1586 0 -139.163 -170.005 -58.6635 0z"
     id="path735" /></glyph>
   <glyph
   unicode="  "
   horiz-adv-x="708"
   id="glyph737"><path
     d="M73.1626 272.833l0 446.33 97.6672 0 0 -447.331c0,-67.3349 14.8326,-117.169 44.6734,-149.327 29.8232,-32.1754 75.9887,-48.3421 138.496,-48.3421 61.8407,0 107.831,16.3422 138.338,49.0091 30.4903,32.8249 45.6564,82.3255 45.6564,148.66l0 447.331 98.1762 0 0 -446.33c0,-96.3331 -24.8381,-169.162 -74.4967,-218.663 -49.6761,-49.5006 -122.681,-74.1631 -219.014,-74.1631 -89.8208,0 -157.156,24.329 -202.163,73.1626 -44.8314,48.8336 -67.3349,122.172 -67.3349,219.663zm351.665 509.33l-58.6635 0 -139.163 170.005 98.1586 0 99.6682 -170.005z"
     id="path739" /></glyph>
   <glyph
   unicode="  "
   horiz-adv-x="772"
   id="glyph741"><path
     d="M214.661 137.338c22.5035,-24.171 48.1665,-42.1633 77.0068,-54.3453 28.8402,-11.989 60.6646,-17.9922 95.4905,-17.9922 74.8477,0 133.336,25.9966 175.517,77.8318 42.1633,51.9932 63.3327,123.997 63.3327,216.17 0,37.0026 -3.51068,71.337 -10.5145,102.67 -6.98626,31.4908 -17.5007,59.4885 -31.4908,84.1686l-369.341 -408.503zm343.503 445.663c-21.8364,24.5046 -46.499,42.1633 -73.8296,53.1693 -27.3307,11.164 -59.664,16.6582 -97.1757,16.6582 -75.8307,0 -134.828,-26.1546 -176.991,-78.6568 -42.1633,-52.3443 -63.3327,-125.665 -63.3327,-220.172 0,-37.6696 3.49313,-71.337 10.339,-100.827 6.82828,-29.3317 17.3252,-56.1709 31.6663,-80.3419l369.324 410.17zm-438.168 -481.841c-24.6625,31.5084 -43.3218,68.6689 -55.6619,111.499 -12.34,42.8479 -18.5013,91.6814 -18.5013,146.343 0,118.661 30.1743,211.659 90.6633,278.502 60.3311,66.8258 143.833,100.335 250.663,100.335 46.85,0 89.5048,-6.84583 128.017,-20.5024 38.3191,-13.6741 73.3206,-34.51 104.987,-62.5077l73.6716 83.0101 35.1595 -32.6669 -76.1642 -86.0117c24.6625,-31.6663 43.3394,-69.1604 55.6794,-112.5 12.3225,-43.4973 18.4837,-92.8224 18.4837,-147.835 0,-118.661 -29.9988,-211.659 -90.1543,-278.485 -59.9975,-66.8434 -143.341,-100.335 -249.68,-100.335 -48.4825,0 -92.1554,6.98626 -130.65,20.9939 -38.6702,14.0076 -73.5137,35.335 -104.846,63.9997l-74.6546 -84.9936 -36.002 32.1578 78.9903 88.9958z"
     id="path743" /></glyph>
   <glyph
   unicode="  "
   horiz-adv-x="832"
   id="glyph745"><path
     d="M419.825 346.171l229.002 229.002 47.833 -48.3421 -228.984 -229.002 228.984 -229.002 -47.833 -46.8325 -229.002 228.001 -228.984 -228.001 -47.833 46.8325 228.984 229.002 -228.984 229.002 47.833 48.3421 228.984 -229.002z"
     id="path747" /></glyph>
   <glyph
   unicode="  "
   horiz-adv-x="772"
   id="glyph749"><path
     d="M146.834 359.002c0,-92.1729 21.1694,-164.177 63.6662,-216.17 42.4968,-51.8352 101.494,-77.8318 176.657,-77.8318 74.8477,0 133.336,25.9966 175.517,77.8318 42.1633,51.9932 63.3327,123.997 63.3327,216.17 0,92.3309 -21.1694,164.493 -63.3327,216.17 -42.1808,51.8352 -100.669,77.6563 -175.517,77.6563 -75.1637,0 -134.161,-25.8211 -176.657,-77.6563 -42.4968,-51.6772 -63.6662,-123.839 -63.6662,-216.17zm-101.002 0c0,118.661 30.1743,211.659 90.5054,278.502 60.489,66.8258 143.991,100.335 250.821,100.335 106.514,0 189.682,-33.3339 249.68,-100.177 60.1555,-66.6678 90.1543,-159.666 90.1543,-278.66 0,-118.837 -29.9988,-211.835 -90.1543,-278.66 -59.9975,-66.8434 -143.166,-100.335 -249.68,-100.335 -106.83,0 -190.332,33.4919 -250.821,100.335 -60.3311,66.8258 -90.5054,159.824 -90.5054,278.66zm377.504 451l0 103.003 88.8378 0 0 -103.003 -88.8378 0zm-161.175 0l0 103.003 88.8378 0 0 -103.003 -88.8378 0z"
     id="path751" /></glyph>
   <glyph
   unicode="  "
   horiz-adv-x="772"
   id="glyph753"><path
     d="M146.834 359.002c0,-92.1729 21.1694,-164.177 63.6662,-216.17 42.4968,-51.8352 101.494,-77.8318 176.657,-77.8318 74.8477,0 133.336,25.9966 175.517,77.8318 42.1633,51.9932 63.3327,123.997 63.3327,216.17 0,92.3309 -21.1694,164.493 -63.3327,216.17 -42.1808,51.8352 -100.669,77.6563 -175.517,77.6563 -75.1637,0 -134.161,-25.8211 -176.657,-77.6563 -42.4968,-51.6772 -63.6662,-123.839 -63.6662,-216.17zm-101.002 0c0,118.661 30.1743,211.659 90.5054,278.502 60.489,66.8258 143.991,100.335 250.821,100.335 106.514,0 189.682,-33.3339 249.68,-100.177 60.1555,-66.6678 90.1543,-159.666 90.1543,-278.66 0,-118.837 -29.9988,-211.835 -90.1543,-278.66 -59.9975,-66.8434 -143.166,-100.335 -249.68,-100.335 -106.83,0 -190.332,33.4919 -250.821,100.335 -60.3311,66.8258 -90.5054,159.824 -90.5054,278.66zm484.509 558.005c-6.51231,-32.8424 -17.8343,-57.8385 -34.1765,-75.1812 -16.3247,-17.1672 -37.0026,-25.8211 -61.9986,-25.8211 -4.33569,0 -9.0049,0.333515 -14.4991,1.15852 -5.33624,0.842563 -11.164,2.00109 -17.3252,3.66866l-47.3415 13.1651c-4.16016,1.17608 -8.33787,2.17662 -12.498,2.84365 -4.00218,0.667029 -7.82882,1.00054 -11.3395,1.00054 -9.82991,0 -18.5013,-2.84365 -25.9966,-8.5134 -7.4953,-5.66975 -13.4986,-13.9901 -17.9922,-24.9961l-43.0058 0c5.82773,31.8419 16.9917,56.3289 33.1584,73.6716 16.3422,17.1672 36.6691,25.8211 61.1736,25.8211 5.49422,0 10.6725,-0.333515 15.4997,-0.982991 5.00272,-0.667029 9.33841,-1.66757 13.1651,-2.84365l48.3421 -14.1656c4.98517,-1.15852 9.49639,-2.15907 13.6566,-2.8261 4.33569,-0.667029 8.33787,-1.00054 12.34,-1.00054 10.9884,0 20.3268,3.00163 27.8221,8.82936 7.51286,5.82773 13.5161,14.4991 18.0098,26.1721l43.0058 0z"
     id="path755" /></glyph>
   <glyph
   unicode="  "
   horiz-adv-x="772"
   id="glyph757"><path
     d="M146.834 359.002c0,-92.1729 21.1694,-164.177 63.6662,-216.17 42.4968,-51.8352 101.494,-77.8318 176.657,-77.8318 74.8477,0 133.336,25.9966 175.517,77.8318 42.1633,51.9932 63.3327,123.997 63.3327,216.17 0,92.3309 -21.1694,164.493 -63.3327,216.17 -42.1808,51.8352 -100.669,77.6563 -175.517,77.6563 -75.1637,0 -134.161,-25.8211 -176.657,-77.6563 -42.4968,-51.6772 -63.6662,-123.839 -63.6662,-216.17zm-101.002 0c0,118.661 30.1743,211.659 90.5054,278.502 60.489,66.8258 143.991,100.335 250.821,100.335 106.514,0 189.682,-33.3339 249.68,-100.177 60.1555,-66.6678 90.1543,-159.666 90.1543,-278.66 0,-118.837 -29.9988,-211.835 -90.1543,-278.66 -59.9975,-66.8434 -143.166,-100.335 -249.68,-100.335 -106.83,0 -190.332,33.4919 -250.821,100.335 -60.3311,66.8258 -90.5054,159.824 -90.5054,278.66zm197.335 423.16l96.1576 170.005 95.8416 0 96.1751 -170.005 -60.0151 0 -83.993 110.832 -84.9936 -110.832 -59.1725 0z"
     id="path759" /></glyph>
   <glyph
   unicode="  "
   horiz-adv-x="772"
   id="glyph761"><path
     d="M146.834 359.002c0,-92.1729 21.1694,-164.177 63.6662,-216.17 42.4968,-51.8352 101.494,-77.8318 176.657,-77.8318 74.8477,0 133.336,25.9966 175.517,77.8318 42.1633,51.9932 63.3327,123.997 63.3327,216.17 0,92.3309 -21.1694,164.493 -63.3327,216.17 -42.1808,51.8352 -100.669,77.6563 -175.517,77.6563 -75.1637,0 -134.161,-25.8211 -176.657,-77.6563 -42.4968,-51.6772 -63.6662,-123.839 -63.6662,-216.17zm-101.002 0c0,118.661 30.1743,211.659 90.5054,278.502 60.489,66.8258 143.991,100.335 250.821,100.335 106.514,0 189.682,-33.3339 249.68,-100.177 60.1555,-66.6678 90.1543,-159.666 90.1543,-278.66 0,-118.837 -29.9988,-211.835 -90.1543,-278.66 -59.9975,-66.8434 -143.166,-100.335 -249.68,-100.335 -106.83,0 -190.332,33.4919 -250.821,100.335 -60.3311,66.8258 -90.5054,159.824 -90.5054,278.66zm271.499 423.16l99.6682 170.005 98.1762 0 -139.181 -170.005 -58.6635 0z"
     id="path763" /></glyph>
   <glyph
   unicode="  "
   horiz-adv-x="772"
   id="glyph765"><path
     d="M146.834 359.002c0,-92.1729 21.1694,-164.177 63.6662,-216.17 42.4968,-51.8352 101.494,-77.8318 176.657,-77.8318 74.8477,0 133.336,25.9966 175.517,77.8318 42.1633,51.9932 63.3327,123.997 63.3327,216.17 0,92.3309 -21.1694,164.493 -63.3327,216.17 -42.1808,51.8352 -100.669,77.6563 -175.517,77.6563 -75.1637,0 -134.161,-25.8211 -176.657,-77.6563 -42.4968,-51.6772 -63.6662,-123.839 -63.6662,-216.17zm-101.002 0c0,118.661 30.1743,211.659 90.5054,278.502 60.489,66.8258 143.991,100.335 250.821,100.335 106.514,0 189.682,-33.3339 249.68,-100.177 60.1555,-66.6678 90.1543,-159.666 90.1543,-278.66 0,-118.837 -29.9988,-211.835 -90.1543,-278.66 -59.9975,-66.8434 -143.166,-100.335 -249.68,-100.335 -106.83,0 -190.332,33.4919 -250.821,100.335 -60.3311,66.8258 -90.5054,159.824 -90.5054,278.66zm411.171 423.16l-58.6635 0 -139.181 170.005 98.1762 0 99.6682 -170.005z"
     id="path767" /></glyph>
   <glyph
   unicode="  "
   horiz-adv-x="721"
   id="glyph769"><path
     d="M76.1642 0l0 719.163 107.006 0 335.832 -522.337c7.4953,-11.4975 13.9901,-22.1524 19.5018,-32.3334 5.49422,-9.98789 9.82991,-19.4843 13.1651,-28.3312l0 583.001 93.3315 0 0 -719.163 -106.005 0 -343.169 529.674c-5.1607,8.16233 -9.98789,16.6582 -14.3236,25.4875 -4.49367,8.67138 -8.67138,18.0098 -12.498,27.8397l0 -583.001 -92.84 0zm427.829 917.007c-6.49476,-32.8424 -17.8343,-57.8385 -34.1589,-75.1812 -16.3422,-17.1672 -37.0026,-25.8211 -61.9986,-25.8211 -4.33569,0 -9.0049,0.333515 -14.4991,1.15852 -5.33624,0.842563 -11.164,2.00109 -17.3428,3.66866l-47.324 13.1651c-4.17771,1.17608 -8.33787,2.17662 -12.498,2.84365 -4.00218,0.667029 -7.84637,1.00054 -11.3395,1.00054 -9.82991,0 -18.5013,-2.84365 -25.9966,-8.5134 -7.4953,-5.66975 -13.4986,-13.9901 -18.0098,-24.9961l-42.9883 0c5.82773,31.8419 16.9917,56.3289 33.1584,73.6716 16.3422,17.1672 36.6691,25.8211 61.1736,25.8211 5.49422,0 10.6549,-0.333515 15.4997,-0.982991 5.00272,-0.667029 9.33841,-1.66757 13.1651,-2.84365l48.3245 -14.1656c5.00272,-1.15852 9.51395,-2.15907 13.6741,-2.8261 4.33569,-0.667029 8.33787,-1.00054 12.34,-1.00054 10.9884,0 20.3268,3.00163 27.8221,8.82936 7.51286,5.82773 13.4986,14.4991 18.0098,26.1721l42.9883 0z"
     id="path771" /></glyph>
   <glyph
   unicode="  "
   horiz-adv-x="711"
   id="glyph773"><path
     d="M348.172 636.171l-169.004 0 0 -223.174 192.824 0 0 -61.9986 -192.824 0 0 -263.161 169.004 0c71.495,0 125.665,23.3285 162.492,70.003 36.8446,46.8325 55.1704,115.835 55.1704,207.323 0,87.5037 -18.6593,154.663 -56.1709,201.162 -37.3361,46.5165 -91.3304,69.845 -161.491,69.845zm-267.18 -636.171l0 350.998 -80.9914 0 0 61.9986 80.9914 0 0 306.167 274.834 0c100.335,0 176.833,-29.9988 229.844,-89.8383 52.8358,-59.822 79.3238,-146.325 79.3238,-259.316 0,-117.169 -27.4886,-208.008 -82.3255,-272.85 -54.8368,-64.8247 -131.668,-97.1581 -230.669,-97.1581l-271.007 0z"
     id="path775" /></glyph>
   <glyph
   unicode="  "
   horiz-adv-x="222"
   id="glyph777"><path
     d="M66.8258 0l0 523.004 87.8372 0 0 -523.004 -87.8372 0zm80.1664 622.005l0 103.003 88.8378 0 0 -103.003 -88.8378 0zm-161.158 0l0 103.003 88.8378 0 0 -103.003 -88.8378 0z"
     id="path779" /></glyph>
   <glyph
   unicode="  "
   horiz-adv-x="222"
   id="glyph781"><path
     d="M66.8258 0l0 523.004 87.8372 0 0 -523.004 -87.8372 0zm-99.9842 594.165l96.1576 170.005 95.8416 0 96.1576 -170.005 -59.9975 0 -83.993 110.832 -85.0111 -110.832 -59.155 0z"
     id="path783" /></glyph>
   <glyph
   unicode="  "
   horiz-adv-x="222"
   id="glyph785"><path
     d="M66.8258 0l0 523.004 87.8372 0 0 -523.004 -87.8372 0zm-25.8211 594.165l99.6682 170.005 98.1586 0 -139.163 -170.005 -58.6635 0z"
     id="path787" /></glyph>
   <glyph
   unicode="  "
   horiz-adv-x="222"
   id="glyph789"><path
     d="M66.8258 0l0 523.004 87.8372 0 0 -523.004 -87.8372 0zm113.834 594.165l-58.6635 0 -139.163 170.005 98.1586 0 99.6682 -170.005z"
     id="path791" /></glyph>
   <glyph
   unicode="  "
   horiz-adv-x="546"
   id="glyph793"><path
     d="M133.827 308.993l286.998 0c-0.333515,48.8336 -12.656,86.5032 -37.1606,113.009 -24.329,26.5056 -58.997,39.8287 -103.828,39.8287 -43.3394,0 -77.4983,-12.9895 -102.336,-39.0037 -24.8381,-26.1546 -39.4952,-63.9997 -43.6729,-113.834zm285.173 -139.988l86.8367 0c-9.49639,-57.6629 -34.51,-103.179 -75.1637,-136.337 -40.6712,-33.1584 -91.9974,-49.8341 -153.838,-49.8341 -72.4956,0 -129.843,24.329 -171.83,73.1626 -42.0053,48.8336 -62.9992,115.501 -62.9992,199.846 0,89.1538 20.8359,158.823 62.4901,208.991 41.6718,50.1676 99.1767,75.1637 172.339,75.1637 75.1637,0 133.336,-23.1705 174.498,-69.336 41.1627,-46.1655 61.8407,-111.499 61.8407,-195.826 0,-10.6725 0,-18.6593 -0.175534,-23.8375 -0.157981,-5.1607 -0.667029,-10.3214 -1.33406,-15.1661l-377.328 0c1.00054,-54.9948 14.6571,-97.6672 41.0048,-127.824 26.3301,-30.1743 62.9992,-45.1649 109.832,-45.1649 35.8265,0 65.3338,9.16288 88.6623,27.6642 23.3285,18.3258 38.3366,44.4979 45.1649,78.4988zm-103.003 453.001l0 103.003 88.8378 0 0 -103.003 -88.8378 0zm-161.158 0l0 103.003 88.8202 0 0 -103.003 -88.8202 0z"
     id="path795" /></glyph>
   <glyph
   unicode="  "
   horiz-adv-x="546"
   id="glyph797"><path
     d="M133.827 308.993l286.998 0c-0.333515,48.8336 -12.656,86.5032 -37.1606,113.009 -24.329,26.5056 -58.997,39.8287 -103.828,39.8287 -43.3394,0 -77.4983,-12.9895 -102.336,-39.0037 -24.8381,-26.1546 -39.4952,-63.9997 -43.6729,-113.834zm285.173 -139.988l86.8367 0c-9.49639,-57.6629 -34.51,-103.179 -75.1637,-136.337 -40.6712,-33.1584 -91.9974,-49.8341 -153.838,-49.8341 -72.4956,0 -129.843,24.329 -171.83,73.1626 -42.0053,48.8336 -62.9992,115.501 -62.9992,199.846 0,89.1538 20.8359,158.823 62.4901,208.991 41.6718,50.1676 99.1767,75.1637 172.339,75.1637 75.1637,0 133.336,-23.1705 174.498,-69.336 41.1627,-46.1655 61.8407,-111.499 61.8407,-195.826 0,-10.6725 0,-18.6593 -0.175534,-23.8375 -0.157981,-5.1607 -0.667029,-10.3214 -1.33406,-15.1661l-377.328 0c1.00054,-54.9948 14.6571,-97.6672 41.0048,-127.824 26.3301,-30.1743 62.9992,-45.1649 109.832,-45.1649 35.8265,0 65.3338,9.16288 88.6623,27.6642 23.3285,18.3258 38.3366,44.4979 45.1649,78.4988zm-283.172 425.161l96.1751 170.005 95.824 0 96.1751 -170.005 -59.9975 0 -84.0106 110.832 -84.9936 -110.832 -59.1725 0z"
     id="path799" /></glyph>
   <glyph
   unicode="  "
   horiz-adv-x="546"
   id="glyph801"><path
     d="M133.827 308.993l286.998 0c-0.333515,48.8336 -12.656,86.5032 -37.1606,113.009 -24.329,26.5056 -58.997,39.8287 -103.828,39.8287 -43.3394,0 -77.4983,-12.9895 -102.336,-39.0037 -24.8381,-26.1546 -39.4952,-63.9997 -43.6729,-113.834zm285.173 -139.988l86.8367 0c-9.49639,-57.6629 -34.51,-103.179 -75.1637,-136.337 -40.6712,-33.1584 -91.9974,-49.8341 -153.838,-49.8341 -72.4956,0 -129.843,24.329 -171.83,73.1626 -42.0053,48.8336 -62.9992,115.501 -62.9992,199.846 0,89.1538 20.8359,158.823 62.4901,208.991 41.6718,50.1676 99.1767,75.1637 172.339,75.1637 75.1637,0 133.336,-23.1705 174.498,-69.336 41.1627,-46.1655 61.8407,-111.499 61.8407,-195.826 0,-10.6725 0,-18.6593 -0.175534,-23.8375 -0.157981,-5.1607 -0.667029,-10.3214 -1.33406,-15.1661l-377.328 0c1.00054,-54.9948 14.6571,-97.6672 41.0048,-127.824 26.3301,-30.1743 62.9992,-45.1649 109.832,-45.1649 35.8265,0 65.3338,9.16288 88.6623,27.6642 23.3285,18.3258 38.3366,44.4979 45.1649,78.4988zm-209.008 425.161l99.6682 170.005 98.1762 0 -139.163 -170.005 -58.681 0z"
     id="path803" /></glyph>
   <glyph
   unicode="  "
   horiz-adv-x="546"
   id="glyph805"><path
     d="M133.827 308.993l286.998 0c-0.333515,48.8336 -12.656,86.5032 -37.1606,113.009 -24.329,26.5056 -58.997,39.8287 -103.828,39.8287 -43.3394,0 -77.4983,-12.9895 -102.336,-39.0037 -24.8381,-26.1546 -39.4952,-63.9997 -43.6729,-113.834zm285.173 -139.988l86.8367 0c-9.49639,-57.6629 -34.51,-103.179 -75.1637,-136.337 -40.6712,-33.1584 -91.9974,-49.8341 -153.838,-49.8341 -72.4956,0 -129.843,24.329 -171.83,73.1626 -42.0053,48.8336 -62.9992,115.501 -62.9992,199.846 0,89.1538 20.8359,158.823 62.4901,208.991 41.6718,50.1676 99.1767,75.1637 172.339,75.1637 75.1637,0 133.336,-23.1705 174.498,-69.336 41.1627,-46.1655 61.8407,-111.499 61.8407,-195.826 0,-10.6725 0,-18.6593 -0.175534,-23.8375 -0.157981,-5.1607 -0.667029,-10.3214 -1.33406,-15.1661l-377.328 0c1.00054,-54.9948 14.6571,-97.6672 41.0048,-127.824 26.3301,-30.1743 62.9992,-45.1649 109.832,-45.1649 35.8265,0 65.3338,9.16288 88.6623,27.6642 23.3285,18.3258 38.3366,44.4979 45.1649,78.4988zm-69.336 425.161l-58.6635 0 -139.163 170.005 98.1586 0 99.6682 -170.005z"
     id="path807" /></glyph>
   <glyph
   unicode="  "
   horiz-adv-x="524"
   id="glyph809"><path
     d="M413.839 348.997c-2.66812,35.8441 -15.4997,63.3327 -38.8457,82.8345 -23.1529,19.3439 -54.9948,28.9982 -95.3325,28.9982 -47.833,0 -84.6601,-16.9917 -110.323,-50.9926 -25.6631,-34.0009 -38.5122,-83.0101 -38.5122,-146.834 0,-63.9997 12.34,-113.342 37.1781,-147.677 24.6625,-34.3345 59.9975,-51.4841 105.829,-51.4841 40.6712,0 73.3381,10.6549 97.8251,31.8243 24.6801,21.1694 40.0042,51.9932 46.183,92.3309l83.993 0c-2.66812,-59.3305 -23.3285,-107.339 -61.9986,-144.166 -38.6702,-36.6691 -89.6628,-56.6624 -152.838,-59.9975l0 -38.1611 12.6736 0c33.1584,0 58.8215,-6.67029 76.8313,-20.0109 18.1678,-13.323 27.1551,-32.1578 27.1551,-56.6624 0,-28.5067 -9.82991,-49.9921 -29.3317,-64.3332 -19.5018,-14.3411 -48.658,-21.5029 -87.3282,-21.5029 -16.6582,0 -35.1595,1.50959 -55.5039,4.66921 -20.3268,3.00163 -41.8298,7.67084 -64.6667,13.8321l0 45.3404c25.6806,-5.84528 48.8336,-10.339 69.5115,-13.3406 20.6604,-3.15961 37.1606,-4.66921 49.6586,-4.66921 16.5002,0 29.3317,3.17717 38.1611,9.33841 9.0049,6.16125 13.5161,15.0082 13.5161,26.8392 0,12.656 -4.84474,22.1524 -14.6746,28.6647 -9.67193,6.49476 -24.5046,9.82991 -44.3399,9.82991 -5.49422,0 -10.4969,0 -14.8326,-0.175534 -4.49367,-0.157981 -8.82936,-0.315961 -12.9895,-0.315961l0 80.6579c-65.6673,6.16125 -117.503,33.8254 -155.172,82.9925 -37.8276,49.1671 -56.6624,113.5 -56.6624,192.842 0,86.9947 21.5029,155.33 64.6667,205.34 43.1638,49.9921 101.827,74.9882 175.99,74.9882 65.6673,0 118.345,-17.3252 157.84,-51.9932 39.6707,-34.668 59.9975,-81.009 61.3316,-139.005l-84.9936 0z"
     id="path811" /></glyph>
   <glyph
   unicode="  "
   horiz-adv-x="881"
   id="glyph813"><path
     d="M464.832 309.168l288.174 0c-0.333515,48.8336 -12.6736,86.3277 -37.1781,112.833 -24.329,26.5056 -58.997,39.8287 -103.986,39.8287 -43.6729,0 -78.0073,-13.1651 -103.003,-39.3372 -25.1716,-26.1546 -39.8462,-63.8242 -44.0064,-113.325zm-83.993 -46.0075c-29.3317,-10.9884 -63.1747,-19.5018 -101.845,-25.154 -38.4946,-5.66975 -59.822,-9.0049 -64.1577,-10.0054 -30.5078,-8.16233 -52.5022,-18.8348 -65.8428,-31.9999 -13.323,-13.1651 -19.9933,-30.8413 -19.9933,-52.9937 0,-26.1721 8.82936,-46.341 26.3301,-60.6821 17.6763,-14.3236 42.1633,-21.4854 73.6716,-21.4854 42.6723,0 78.6568,11.989 107.831,35.9845 29.3317,24.0131 44.0064,53.0113 44.0064,87.3457l0 78.9903zm31.3328 -183.152c-30.3323,-33.843 -60.8401,-58.5055 -91.6639,-74.0052 -30.6658,-15.4997 -64.5088,-23.1705 -101.178,-23.1705 -56.9959,0 -101.669,13.4986 -133.827,40.3377 -32.1754,26.8216 -48.3421,63.6662 -48.3421,110.499 0,49.5006 14.3411,88.8378 43.0058,117.994 28.6647,29.1738 70.4945,47.008 125.84,53.5028 13.9901,1.66757 33.0004,3.49313 56.6624,5.82773 80.1664,7.84637 120.171,28.8402 120.171,62.9992 0,31.1748 -9.18043,53.8363 -27.6817,67.8439 -18.3258,13.9901 -47.991,20.9939 -88.9958,20.9939 -39.1616,0 -68.8269,-8.00435 -89.3293,-23.9955 -20.5024,-15.8332 -30.8413,-38.8281 -30.8413,-68.8269l0 -3.8442 -82.9925 0 0 3.8442c0,51.8177 18.3258,92.9979 54.9948,123.33 36.5111,30.4903 86.3452,45.6564 149.169,45.6564 43.1638,0 80.1664,-6.33678 110.832,-18.9928 30.5078,-12.6736 54.0118,-31.5084 70.1785,-56.1709 20.3268,25.3296 44.4979,44.1644 72.6535,56.6624 28.1732,12.34 60.8401,18.5013 98.3342,18.5013 69.336,0 124.331,-24.329 165.178,-73.1626 40.6537,-48.8336 60.9981,-115.168 60.9981,-198.669 0,-8.49585 0,-14.6571 -0.175534,-18.6593 -0.157981,-3.8442 -0.667029,-7.82882 -1.33406,-11.673l-376.485 0c0.982991,-58.997 13.1651,-102.67 36.6515,-131.159 23.346,-28.5067 58.681,-42.8303 106.005,-42.8303 39.6707,0 71.1615,8.82936 94.174,26.4881 23.1529,17.5007 38.4946,44.1644 45.9899,79.6749l86.8367 0c-10.4969,-59.9975 -36.16,-106.005 -77.3403,-138.005 -41.3207,-32.1578 -94.999,-48.1665 -161.491,-48.1665 -45.8319,0 -84.1686,8.00435 -114.501,23.8375 -30.5078,15.9912 -54.3278,40.4957 -71.495,73.3381z"
     id="path815" /></glyph>
   <glyph
   unicode="  "
   horiz-adv-x="542"
   id="glyph817"><path
     d="M158.332 674.841c0,31.1573 10.4969,57.4874 31.6663,78.6568 21.1694,21.1694 47.3415,31.6663 78.1653,31.6663 30.9993,0 56.9959,-10.4969 78.1653,-31.6663 21.1694,-21.1694 31.6663,-47.4995 31.6663,-78.6568 0,-30.9993 -10.4969,-57.1714 -31.6663,-78.6744 -21.1694,-21.5029 -47.166,-32.1578 -78.1653,-32.1578 -30.6658,0 -56.5044,10.8305 -77.8318,32.4914 -21.3274,21.6609 -31.9999,47.6751 -31.9999,78.3409zm55.6619 0c0,-15.0082 5.33624,-27.6817 15.8332,-38.0031 10.6725,-10.4969 23.346,-15.6752 38.3366,-15.6752 14.6746,0 27.1727,5.33624 37.8451,15.8332 10.4969,10.6725 15.8332,23.1705 15.8332,37.8451 0,14.9906 -5.33624,27.6642 -15.8332,38.3191 -10.6725,10.5145 -23.1705,15.8332 -37.8451,15.8332 -14.6571,0 -27.3307,-5.31868 -38.0031,-15.8332 -10.8305,-10.6549 -16.1667,-23.3285 -16.1667,-38.3191zm176.166 -605.013c-27.3307,-28.6647 -56.4869,-50.1676 -87.1527,-64.4912 -30.8413,-14.3411 -63.3327,-21.5029 -97.8427,-21.5029 -53.5028,0 -95.157,14.0076 -124.998,41.8298 -29.9988,27.8397 -45.0069,66.3343 -45.0069,115.343 0,47.6575 14.6746,84.8181 44.1819,111.833 29.4897,27.1551 74.3211,44.4979 134.494,52.3267 15.3241,1.66757 36.002,3.82664 61.9986,6.82828 44.6734,4.51123 72.0041,9.0049 81.992,13.1651 10.181,3.8442 16.8337,9.0049 20.1689,15.3417 3.17717,6.33678 4.84474,20.1689 4.84474,41.3383 0,26.6636 -9.84746,46.657 -29.3317,59.9975 -19.5018,13.323 -49.0091,19.9933 -88.3463,19.9933 -40.6537,0 -71.337,-8.16233 -91.9974,-24.329 -20.6604,-16.3422 -30.9993,-40.4957 -30.9993,-72.3376l-82.9925 0 0 3.8442c0,52.8182 18.5013,94.49 55.6619,125.156 37.1606,30.5078 88.1708,45.8319 153.329,45.8319 69.845,0 121.329,-13.1651 154.505,-39.3372 33.0004,-26.1546 49.5006,-67.1593 49.5006,-122.821l0 -261.669c0,-22.5035 2.49258,-37.0026 7.33732,-43.4973 4.82719,-6.51231 13.6566,-9.67193 26.3301,-9.67193 2.66812,0 5.82773,0.175534 9.49639,0.667029 3.82664,0.509049 8.33787,1.15852 13.4986,2.15907l0 -67.8264c-10.6725,-2.8261 -20.1689,-5.00272 -27.9977,-6.16125 -8.00435,-1.00054 -15.6752,-1.66757 -22.837,-1.66757 -29.3317,0 -51.1682,6.33678 -65.8253,18.9928 -14.6746,12.8315 -22.012,31.9999 -22.012,57.6629l0 3.00163zm-8.32031 196.335c-23.504,-12.656 -63.6662,-22.6614 -120.68,-29.8232 -20.1513,-2.66812 -35.1595,-4.66921 -45.3229,-6.33678 -31.8419,-5.1607 -54.8368,-14.6746 -68.8445,-28.3312 -13.9901,-13.6741 -20.9939,-33.5095 -20.9939,-59.664 0,-26.0141 8.16233,-46.0075 24.329,-60.0151 16.3422,-13.9901 39.6707,-20.9939 69.845,-20.9939 47.324,0 85.9941,11.831 116.326,35.6685 30.1743,23.8375 45.3404,54.1698 45.3404,91.3304l0 78.1653z"
     id="path819" /></glyph>
   <glyph
   unicode="  "
   horiz-adv-x="542"
   id="glyph821"><path
     d="M390.16 69.8275c-27.3307,-28.6647 -56.4869,-50.1676 -87.1527,-64.4912 -30.8413,-14.3411 -63.3327,-21.5029 -97.8427,-21.5029 -53.5028,0 -95.157,14.0076 -124.998,41.8298 -29.9988,27.8397 -45.0069,66.3343 -45.0069,115.343 0,47.6575 14.6746,84.8181 44.1819,111.833 29.4897,27.1551 74.3211,44.4979 134.494,52.3267 15.3241,1.66757 36.002,3.82664 61.9986,6.82828 44.6734,4.51123 72.0041,9.0049 81.992,13.1651 10.181,3.8442 16.8337,9.0049 20.1689,15.3417 3.17717,6.33678 4.84474,20.1689 4.84474,41.3383 0,26.6636 -9.84746,46.657 -29.3317,59.9975 -19.5018,13.323 -49.0091,19.9933 -88.3463,19.9933 -40.6537,0 -71.337,-8.16233 -91.9974,-24.329 -20.6604,-16.3422 -30.9993,-40.4957 -30.9993,-72.3376l-82.9925 0 0 3.8442c0,52.8182 18.5013,94.49 55.6619,125.156 37.1606,30.5078 88.1708,45.8319 153.329,45.8319 69.845,0 121.329,-13.1651 154.505,-39.3372 33.0004,-26.1546 49.5006,-67.1593 49.5006,-122.821l0 -261.669c0,-22.3279 2.49258,-36.827 7.33732,-43.3394 4.82719,-6.49476 13.6566,-9.82991 26.3301,-9.82991 2.66812,0 5.82773,0.175534 9.49639,0.667029 3.82664,0.509049 8.33787,1.33406 13.4986,2.3346l0 -68.0019c-10.6725,-2.8261 -20.1689,-5.00272 -27.9977,-6.16125 -8.00435,-1.17608 -15.6752,-1.66757 -22.837,-1.66757 -29.3317,0 -51.1682,6.33678 -65.8253,18.9928 -14.6746,12.8315 -22.012,31.9999 -22.012,57.6629l0 3.00163zm-8.32031 196.335c-23.504,-12.656 -63.6662,-22.6614 -120.68,-29.8232 -20.1513,-2.66812 -35.1595,-4.66921 -45.3229,-6.33678 -31.8419,-5.1607 -54.8368,-14.6746 -68.8445,-28.3312 -13.9901,-13.6741 -20.9939,-33.5095 -20.9939,-59.664 0,-26.0141 8.16233,-46.0075 24.329,-60.0151 16.3422,-13.9901 39.6707,-20.9939 69.845,-20.9939 47.324,0 85.9941,11.831 116.326,35.6685 30.1743,23.8375 45.3404,54.1698 45.3404,91.3304l0 78.1653zm-73.6716 355.843l0 103.003 88.8378 0 0 -103.003 -88.8378 0zm-161.175 0l0 103.003 88.8378 0 0 -103.003 -88.8378 0z"
     id="path823" /></glyph>
   <glyph
   unicode="  "
   horiz-adv-x="542"
   id="glyph825"><path
     d="M390.16 69.8275c-27.3307,-28.6647 -56.4869,-50.1676 -87.1527,-64.4912 -30.8413,-14.3411 -63.3327,-21.5029 -97.8427,-21.5029 -53.5028,0 -95.157,14.0076 -124.998,41.8298 -29.9988,27.8397 -45.0069,66.3343 -45.0069,115.343 0,47.6575 14.6746,84.8181 44.1819,111.833 29.4897,27.1551 74.3211,44.4979 134.494,52.3267 15.3241,1.66757 36.002,3.82664 61.9986,6.82828 44.6734,4.51123 72.0041,9.0049 81.992,13.1651 10.181,3.8442 16.8337,9.0049 20.1689,15.3417 3.17717,6.33678 4.84474,20.1689 4.84474,41.3383 0,26.6636 -9.84746,46.657 -29.3317,59.9975 -19.5018,13.323 -49.0091,19.9933 -88.3463,19.9933 -40.6537,0 -71.337,-8.16233 -91.9974,-24.329 -20.6604,-16.3422 -30.9993,-40.4957 -30.9993,-72.3376l-82.9925 0 0 3.8442c0,52.8182 18.5013,94.49 55.6619,125.156 37.1606,30.5078 88.1708,45.8319 153.329,45.8319 69.845,0 121.329,-13.1651 154.505,-39.3372 33.0004,-26.1546 49.5006,-67.1593 49.5006,-122.821l0 -261.669c0,-22.3279 2.49258,-36.827 7.33732,-43.3394 4.82719,-6.49476 13.6566,-9.82991 26.3301,-9.82991 2.66812,0 5.82773,0.175534 9.49639,0.667029 3.82664,0.509049 8.33787,1.33406 13.4986,2.3346l0 -68.0019c-10.6725,-2.8261 -20.1689,-5.00272 -27.9977,-6.16125 -8.00435,-1.17608 -15.6752,-1.66757 -22.837,-1.66757 -29.3317,0 -51.1682,6.33678 -65.8253,18.9928 -14.6746,12.8315 -22.012,31.9999 -22.012,57.6629l0 3.00163zm-8.32031 196.335c-23.504,-12.656 -63.6662,-22.6614 -120.68,-29.8232 -20.1513,-2.66812 -35.1595,-4.66921 -45.3229,-6.33678 -31.8419,-5.1607 -54.8368,-14.6746 -68.8445,-28.3312 -13.9901,-13.6741 -20.9939,-33.5095 -20.9939,-59.664 0,-26.0141 8.16233,-46.0075 24.329,-60.0151 16.3422,-13.9901 39.6707,-20.9939 69.845,-20.9939 47.324,0 85.9941,11.831 116.326,35.6685 30.1743,23.8375 45.3404,54.1698 45.3404,91.3304l0 78.1653zm33.3339 462.831c-6.51231,-32.8249 -17.8343,-57.8209 -34.1765,-75.1637 -16.3247,-17.1672 -37.0026,-25.8211 -61.9986,-25.8211 -4.33569,0 -9.0049,0.333515 -14.4991,1.15852 -5.33624,0.82501 -11.164,2.00109 -17.3252,3.66866l-47.3415 13.1651c-4.16016,1.15852 -8.33787,2.15907 -12.498,2.8261 -4.00218,0.667029 -7.82882,1.00054 -11.3395,1.00054 -9.82991,0 -18.5013,-2.8261 -25.9966,-8.49585 -7.4953,-5.66975 -13.4986,-13.9901 -17.9922,-24.9961l-43.0058 0c5.82773,31.8243 16.9917,56.3289 33.1584,73.6716 16.3422,17.1672 36.6691,25.8211 61.1736,25.8211 5.49422,0 10.6725,-0.333515 15.4997,-1.00054 5.00272,-0.667029 9.33841,-1.66757 13.1651,-2.8261l48.3421 -14.1656c5.00272,-1.17608 9.49639,-2.17662 13.6566,-2.84365 4.33569,-0.667029 8.33787,-1.00054 12.34,-1.00054 11.006,0 20.3268,3.00163 27.8397,8.84692 7.4953,5.82773 13.4986,14.4991 17.9922,26.1546l43.0058 0z"
     id="path827" /></glyph>
   <glyph
   unicode="  "
   horiz-adv-x="542"
   id="glyph829"><path
     d="M390.16 69.8275c-27.3307,-28.6647 -56.4869,-50.1676 -87.1527,-64.4912 -30.8413,-14.3411 -63.3327,-21.5029 -97.8427,-21.5029 -53.5028,0 -95.157,14.0076 -124.998,41.8298 -29.9988,27.8397 -45.0069,66.3343 -45.0069,115.343 0,47.6575 14.6746,84.8181 44.1819,111.833 29.4897,27.1551 74.3211,44.4979 134.494,52.3267 15.3241,1.66757 36.002,3.82664 61.9986,6.82828 44.6734,4.51123 72.0041,9.0049 81.992,13.1651 10.181,3.8442 16.8337,9.0049 20.1689,15.3417 3.17717,6.33678 4.84474,20.1689 4.84474,41.3383 0,26.6636 -9.84746,46.657 -29.3317,59.9975 -19.5018,13.323 -49.0091,19.9933 -88.3463,19.9933 -40.6537,0 -71.337,-8.16233 -91.9974,-24.329 -20.6604,-16.3422 -30.9993,-40.4957 -30.9993,-72.3376l-82.9925 0 0 3.8442c0,52.8182 18.5013,94.49 55.6619,125.156 37.1606,30.5078 88.1708,45.8319 153.329,45.8319 69.845,0 121.329,-13.1651 154.505,-39.3372 33.0004,-26.1546 49.5006,-67.1593 49.5006,-122.821l0 -261.669c0,-22.3279 2.49258,-36.827 7.33732,-43.3394 4.82719,-6.49476 13.6566,-9.82991 26.3301,-9.82991 2.66812,0 5.82773,0.175534 9.49639,0.667029 3.82664,0.509049 8.33787,1.33406 13.4986,2.3346l0 -68.0019c-10.6725,-2.8261 -20.1689,-5.00272 -27.9977,-6.16125 -8.00435,-1.17608 -15.6752,-1.66757 -22.837,-1.66757 -29.3317,0 -51.1682,6.33678 -65.8253,18.9928 -14.6746,12.8315 -22.012,31.9999 -22.012,57.6629l0 3.00163zm-8.32031 196.335c-23.504,-12.656 -63.6662,-22.6614 -120.68,-29.8232 -20.1513,-2.66812 -35.1595,-4.66921 -45.3229,-6.33678 -31.8419,-5.1607 -54.8368,-14.6746 -68.8445,-28.3312 -13.9901,-13.6741 -20.9939,-33.5095 -20.9939,-59.664 0,-26.0141 8.16233,-46.0075 24.329,-60.0151 16.3422,-13.9901 39.6707,-20.9939 69.845,-20.9939 47.324,0 85.9941,11.831 116.326,35.6685 30.1743,23.8375 45.3404,54.1698 45.3404,91.3304l0 78.1653zm-253.84 328.003l96.1751 170.005 95.824 0 96.1751 -170.005 -60.0151 0 -83.993 110.832 -84.9936 -110.832 -59.1725 0z"
     id="path831" /></glyph>
   <glyph
   unicode="  "
   horiz-adv-x="542"
   id="glyph833"><path
     d="M390.16 69.8275c-27.3307,-28.6647 -56.4869,-50.1676 -87.1527,-64.4912 -30.8413,-14.3411 -63.3327,-21.5029 -97.8427,-21.5029 -53.5028,0 -95.157,14.0076 -124.998,41.8298 -29.9988,27.8397 -45.0069,66.3343 -45.0069,115.343 0,47.6575 14.6746,84.8181 44.1819,111.833 29.4897,27.1551 74.3211,44.4979 134.494,52.3267 15.3241,1.66757 36.002,3.82664 61.9986,6.82828 44.6734,4.51123 72.0041,9.0049 81.992,13.1651 10.181,3.8442 16.8337,9.0049 20.1689,15.3417 3.17717,6.33678 4.84474,20.1689 4.84474,41.3383 0,26.6636 -9.84746,46.657 -29.3317,59.9975 -19.5018,13.323 -49.0091,19.9933 -88.3463,19.9933 -40.6537,0 -71.337,-8.16233 -91.9974,-24.329 -20.6604,-16.3422 -30.9993,-40.4957 -30.9993,-72.3376l-82.9925 0 0 3.8442c0,52.8182 18.5013,94.49 55.6619,125.156 37.1606,30.5078 88.1708,45.8319 153.329,45.8319 69.845,0 121.329,-13.1651 154.505,-39.3372 33.0004,-26.1546 49.5006,-67.1593 49.5006,-122.821l0 -261.669c0,-22.3279 2.49258,-36.827 7.33732,-43.3394 4.82719,-6.49476 13.6566,-9.82991 26.3301,-9.82991 2.66812,0 5.82773,0.175534 9.49639,0.667029 3.82664,0.509049 8.33787,1.33406 13.4986,2.3346l0 -68.0019c-10.6725,-2.8261 -20.1689,-5.00272 -27.9977,-6.16125 -8.00435,-1.17608 -15.6752,-1.66757 -22.837,-1.66757 -29.3317,0 -51.1682,6.33678 -65.8253,18.9928 -14.6746,12.8315 -22.012,31.9999 -22.012,57.6629l0 3.00163zm-8.32031 196.335c-23.504,-12.656 -63.6662,-22.6614 -120.68,-29.8232 -20.1513,-2.66812 -35.1595,-4.66921 -45.3229,-6.33678 -31.8419,-5.1607 -54.8368,-14.6746 -68.8445,-28.3312 -13.9901,-13.6741 -20.9939,-33.5095 -20.9939,-59.664 0,-26.0141 8.16233,-46.0075 24.329,-60.0151 16.3422,-13.9901 39.6707,-20.9939 69.845,-20.9939 47.324,0 85.9941,11.831 116.326,35.6685 30.1743,23.8375 45.3404,54.1698 45.3404,91.3304l0 78.1653zm-179.677 328.003l99.6682 170.005 98.1762 0 -139.181 -170.005 -58.6635 0z"
     id="path835" /></glyph>
   <glyph
   unicode="  "
   horiz-adv-x="542"
   id="glyph837"><path
     d="M390.16 69.8275c-27.3307,-28.6647 -56.4869,-50.1676 -87.1527,-64.4912 -30.8413,-14.3411 -63.3327,-21.5029 -97.8427,-21.5029 -53.5028,0 -95.157,14.0076 -124.998,41.8298 -29.9988,27.8397 -45.0069,66.3343 -45.0069,115.343 0,47.6575 14.6746,84.8181 44.1819,111.833 29.4897,27.1551 74.3211,44.4979 134.494,52.3267 15.3241,1.66757 36.002,3.82664 61.9986,6.82828 44.6734,4.51123 72.0041,9.0049 81.992,13.1651 10.181,3.8442 16.8337,9.0049 20.1689,15.3417 3.17717,6.33678 4.84474,20.1689 4.84474,41.3383 0,26.6636 -9.84746,46.657 -29.3317,59.9975 -19.5018,13.323 -49.0091,19.9933 -88.3463,19.9933 -40.6537,0 -71.337,-8.16233 -91.9974,-24.329 -20.6604,-16.3422 -30.9993,-40.4957 -30.9993,-72.3376l-82.9925 0 0 3.8442c0,52.8182 18.5013,94.49 55.6619,125.156 37.1606,30.5078 88.1708,45.8319 153.329,45.8319 69.845,0 121.329,-13.1651 154.505,-39.3372 33.0004,-26.1546 49.5006,-67.1593 49.5006,-122.821l0 -261.669c0,-22.3279 2.49258,-36.827 7.33732,-43.3394 4.82719,-6.49476 13.6566,-9.82991 26.3301,-9.82991 2.66812,0 5.82773,0.175534 9.49639,0.667029 3.82664,0.509049 8.33787,1.33406 13.4986,2.3346l0 -68.0019c-10.6725,-2.8261 -20.1689,-5.00272 -27.9977,-6.16125 -8.00435,-1.17608 -15.6752,-1.66757 -22.837,-1.66757 -29.3317,0 -51.1682,6.33678 -65.8253,18.9928 -14.6746,12.8315 -22.012,31.9999 -22.012,57.6629l0 3.00163zm-8.32031 196.335c-23.504,-12.656 -63.6662,-22.6614 -120.68,-29.8232 -20.1513,-2.66812 -35.1595,-4.66921 -45.3229,-6.33678 -31.8419,-5.1607 -54.8368,-14.6746 -68.8445,-28.3312 -13.9901,-13.6741 -20.9939,-33.5095 -20.9939,-59.664 0,-26.0141 8.16233,-46.0075 24.329,-60.0151 16.3422,-13.9901 39.6707,-20.9939 69.845,-20.9939 47.324,0 85.9941,11.831 116.326,35.6685 30.1743,23.8375 45.3404,54.1698 45.3404,91.3304l0 78.1653zm-40.0042 328.003l-58.6635 0 -139.163 170.005 98.1586 0 99.6682 -170.005z"
     id="path839" /></glyph>
   <glyph
   unicode="  "
   horiz-adv-x="506"
   id="glyph841"><path
     d="M398.006 523.004l98.1586 0 -220.172 -603.995c-20.8183,-57.0135 -41.8298,-94.174 -62.9992,-111.85 -21.1519,-17.4832 -51.8177,-26.3301 -91.8219,-26.3301 -8.82936,0 -17.5007,0.667029 -26.1721,2.17662 -8.67138,1.49204 -17.3252,3.49313 -25.9966,6.16125l0 83.993c8.67138,-2.65056 17.3252,-4.49367 25.8386,-5.82773 8.49585,-1.33406 16.8337,-2.00109 25.3296,-2.00109 16.9917,0 30.6658,3.33515 41.0048,10.1634 10.4969,6.84583 18.4837,17.8343 23.9955,32.8424l22.837 61.9986 -198.178 552.669 98.1762 0 144.991 -422.844 145.009 422.844zm-108.006 99.0012l0 103.003 88.8378 0 0 -103.003 -88.8378 0zm-161.158 0l0 103.003 88.8202 0 0 -103.003 -88.8202 0z"
     id="path843" /></glyph>
   <glyph
   unicode="  "
   horiz-adv-x="592"
   id="glyph845"><path
     d="M149.836 257.842c0,-64.8423 13.1651,-113.676 39.1616,-146.501 25.9966,-32.8424 64.6667,-49.3426 116.168,-49.3426 49.3426,0 87.5037,18.0098 114.325,53.9943 26.8392,35.8441 40.3377,87.0122 40.3377,153.013 0,59.4885 -13.8321,106.321 -41.6542,140.497 -27.8397,34.1589 -65.8428,51.3262 -114.009,51.3262 -49.5006,0 -87.5037,-17.5007 -114.167,-52.6602 -26.8392,-35.177 -40.1622,-85.3447 -40.1622,-150.327zm-83.0101 -466.85l0 928.171 86.0117 0 0 -269.989c22.17,31.4908 46.657,54.6613 73.6541,69.1604 27.0147,14.4991 58.839,21.6609 95.1746,21.6609 70.003,0 125.84,-24.9961 167.495,-75.1637 41.6718,-50.1676 62.5077,-117.327 62.5077,-201.671 0,-85.3271 -20.8359,-153.153 -62.6657,-203.655 -41.8298,-50.5011 -97.6672,-75.6727 -167.337,-75.6727 -36.3356,0 -68.4934,6.67029 -96.3331,19.8353 -27.8397,13.1651 -51.9932,33.3339 -72.4956,60.3311l0 -273.008 -86.0117 0z"
     id="path847" /></glyph>
   <glyph
   unicode="  "
   horiz-adv-x="506"
   id="glyph849"><path
     d="M398.006 523.004l98.1586 0 -220.172 -603.995c-20.8183,-57.0135 -41.8298,-94.174 -62.9992,-111.85 -21.1519,-17.4832 -51.8177,-26.3301 -91.8219,-26.3301 -8.82936,0 -17.5007,0.667029 -26.1721,2.17662 -8.67138,1.49204 -17.3252,3.49313 -25.9966,6.16125l0 83.993c8.67138,-2.65056 17.3252,-4.49367 25.8386,-5.82773 8.49585,-1.33406 16.8337,-2.00109 25.3296,-2.00109 16.9917,0 30.6658,3.33515 41.0048,10.1634 10.4969,6.84583 18.4837,17.8343 23.9955,32.8424l22.837 61.9986 -198.178 552.669 98.1762 0 144.991 -422.844 145.009 422.844zm-214.011 71.1615l99.6682 170.005 98.1762 0 -139.181 -170.005 -58.6635 0z"
     id="path851" /></glyph>
   <glyph
   unicode="  "
   horiz-adv-x="568"
   id="glyph853"><path
     d="M153.838 523.004l0 -320.841c0,-51.3262 7.9868,-87.1702 24.1535,-107.164 16.1667,-19.9933 43.3394,-29.9988 81.834,-29.9988 50.8347,0 89.1713,14.8326 115.343,44.6734 25.9966,29.8232 39.0037,73.6541 39.0037,131.668l0 281.662 87.8197 0 0 -523.004 -83.993 0 0 78.1653c-18.1678,-30.3323 -41.8298,-52.9937 -70.67,-68.3354 -28.9982,-15.3241 -62.9992,-22.995 -102.161,-22.995 -36.4935,0 -68.1599,6.16125 -95.1746,18.5013 -26.9971,12.498 -47.6575,29.9988 -61.9986,52.8358 -8.16233,12.656 -13.9901,27.4886 -17.6587,44.6559 -3.51068,17.1672 -5.33624,44.1644 -5.33624,81.3425l0 24.8381 0 313.995 88.8378 0zm167.495 99.0012l0 103.003 88.8378 0 0 -103.003 -88.8378 0zm-161.158 0l0 103.003 88.8202 0 0 -103.003 -88.8202 0z"
     id="path855" /></glyph>
   <glyph
   unicode="  "
   horiz-adv-x="568"
   id="glyph857"><path
     d="M153.838 523.004l0 -320.841c0,-51.3262 7.9868,-87.1702 24.1535,-107.164 16.1667,-19.9933 43.3394,-29.9988 81.834,-29.9988 50.8347,0 89.1713,14.8326 115.343,44.6734 25.9966,29.8232 39.0037,73.6541 39.0037,131.668l0 281.662 87.8197 0 0 -523.004 -83.993 0 0 78.1653c-18.1678,-30.3323 -41.8298,-52.9937 -70.67,-68.3354 -28.9982,-15.3241 -62.9992,-22.995 -102.161,-22.995 -36.4935,0 -68.1599,6.16125 -95.1746,18.5013 -26.9971,12.498 -47.6575,29.9988 -61.9986,52.8358 -8.16233,12.656 -13.9901,27.4886 -17.6587,44.6559 -3.51068,17.1672 -5.33624,44.1644 -5.33624,81.3425l0 24.8381 0 313.995 88.8378 0zm-12.6736 71.1615l96.1751 170.005 95.824 0 96.1751 -170.005 -59.9975 0 -84.0106 110.832 -84.9936 -110.832 -59.1725 0z"
     id="path859" /></glyph>
   <glyph
   unicode="  "
   horiz-adv-x="568"
   id="glyph861"><path
     d="M153.838 523.004l0 -320.841c0,-51.3262 7.9868,-87.1702 24.1535,-107.164 16.1667,-19.9933 43.3394,-29.9988 81.834,-29.9988 50.8347,0 89.1713,14.8326 115.343,44.6734 25.9966,29.8232 39.0037,73.6541 39.0037,131.668l0 281.662 87.8197 0 0 -523.004 -83.993 0 0 78.1653c-18.1678,-30.3323 -41.8298,-52.9937 -70.67,-68.3354 -28.9982,-15.3241 -62.9992,-22.995 -102.161,-22.995 -36.4935,0 -68.1599,6.16125 -95.1746,18.5013 -26.9971,12.498 -47.6575,29.9988 -61.9986,52.8358 -8.16233,12.656 -13.9901,27.4886 -17.6587,44.6559 -3.51068,17.1672 -5.33624,44.1644 -5.33624,81.3425l0 24.8381 0 313.995 88.8378 0zm61.4896 71.1615l99.6682 170.005 98.1762 0 -139.163 -170.005 -58.681 0z"
     id="path863" /></glyph>
   <glyph
   unicode="  "
   horiz-adv-x="568"
   id="glyph865"><path
     d="M153.838 523.004l0 -320.841c0,-51.3262 7.9868,-87.1702 24.1535,-107.164 16.1667,-19.9933 43.3394,-29.9988 81.834,-29.9988 50.8347,0 89.1713,14.8326 115.343,44.6734 25.9966,29.8232 39.0037,73.6541 39.0037,131.668l0 281.662 87.8197 0 0 -523.004 -83.993 0 0 78.1653c-18.1678,-30.3323 -41.8298,-52.9937 -70.67,-68.3354 -28.9982,-15.3241 -62.9992,-22.995 -102.161,-22.995 -36.4935,0 -68.1599,6.16125 -95.1746,18.5013 -26.9971,12.498 -47.6575,29.9988 -61.9986,52.8358 -8.16233,12.656 -13.9901,27.4886 -17.6587,44.6559 -3.51068,17.1672 -5.33624,44.1644 -5.33624,81.3425l0 24.8381 0 313.995 88.8378 0zm201.162 71.1615l-58.6635 0 -139.163 170.005 98.1586 0 99.6682 -170.005z"
     id="path867" /></glyph>
   <glyph
   unicode="  "
   horiz-adv-x="581"
   id="glyph869"><path
     d="M169.004 105.829c14.9906,-16.1667 31.9999,-28.3312 51.1682,-36.16 19.3263,-7.82882 41.4963,-11.673 67.0014,-11.673 52.6602,0 92.8224,16.8337 120.487,50.5011 27.6817,33.843 41.5138,82.8345 41.5138,147.343 0,26.9971 -1.66757,51.1506 -5.17825,72.32 -3.33515,21.1694 -8.33787,39.0037 -14.8326,53.6783l-260.159 -276.01zm236.655 310.169c-14.3236,16.3422 -31.3328,28.6647 -51.1506,37.1606 -19.8353,8.5134 -42.0053,12.6736 -66.5099,12.6736 -53.9943,0 -94.49,-16.9917 -121.505,-50.9926 -26.9971,-34.0009 -40.4957,-85.0111 -40.4957,-152.68 0,-27.9977 1.66757,-51.5017 4.82719,-70.3189 3.33515,-18.8348 8.67138,-35.8441 16.1667,-50.8347l258.667 274.992zm-379.821 -412.172l65.0003 72.1796c-17.3428,23.1529 -29.9988,49.8341 -38.3366,79.9909 -8.33787,29.9988 -12.498,65.1758 -12.498,105.162 0,87.8372 21.9944,156.348 66.0008,205.34 43.8309,49.0091 105.162,73.4961 183.995,73.4961 35.8265,0 67.4928,-5.00272 95.1746,-15.1661 27.6642,-9.98789 52.9937,-25.6631 75.6552,-46.8325l60.1731 65.8428 32.1578 -27.6817 -61.9986 -69.3184c17.3428,-24.8381 29.8408,-51.6772 37.8451,-80.6755 7.9868,-28.9982 11.989,-63.6662 11.989,-104.004 0,-87.8197 -21.9944,-156.155 -65.8253,-204.989 -44.0064,-48.8336 -105.338,-73.3381 -184.17,-73.3381 -37.1606,0 -69.1604,4.82719 -96.1751,14.3411 -26.9971,9.65437 -51.8177,24.8205 -74.6546,45.6564l-62.1742 -66.8258 -32.1578 26.8216z"
     id="path871" /></glyph>
   <glyph
   unicode="  "
   horiz-adv-x="832"
   id="glyph873"><path
     d="M416.999 179.168c16.6757,0 30.8413,-6.00326 43.0058,-17.9922 11.989,-12.1821 17.9922,-26.3477 17.9922,-43.0058 0,-16.8337 -6.00326,-31.3328 -17.8343,-43.1638 -11.831,-11.831 -26.1546,-17.8343 -43.1638,-17.8343 -17.1672,0 -31.6663,5.82773 -43.4973,17.5007 -11.673,11.831 -17.5007,26.3301 -17.5007,43.4973 0,16.6582 6.00326,30.8238 17.9922,43.0058 12.1821,11.989 26.3477,17.9922 43.0058,17.9922zm293.001 152.838l0 -67.8439 -586.003 0 0 67.8439 586.003 0zm-293.001 206.99c16.6757,0 30.8413,-6.00326 43.0058,-18.1678 11.989,-12.1645 17.9922,-26.4881 17.9922,-43.3218 0,-16.5002 -6.00326,-30.6658 -17.8343,-42.6723 -11.831,-11.831 -26.1546,-17.8343 -43.1638,-17.8343 -16.8337,0 -31.3328,5.82773 -43.1638,17.6763 -11.831,11.831 -17.8343,25.9966 -17.8343,42.8303 0,16.8337 6.00326,31.1573 17.9922,43.3218 12.1821,12.1645 26.3477,18.1678 43.0058,18.1678z"
     id="path875" /></glyph>
   <glyph
   unicode="  "
   horiz-adv-x="581"
   id="glyph877"><path
     d="M129.825 262.16c0,-64.8247 14.0076,-114.325 41.8473,-148.66 27.8221,-34.3345 67.4928,-51.5017 119.328,-51.5017 51.3262,0 90.8389,17.1672 118.17,51.5017 27.3307,34.3345 41.0048,83.8351 41.0048,148.66 0,64.5088 -13.6741,113.834 -41.0048,148.168 -27.3307,34.3345 -66.8434,51.5017 -118.17,51.5017 -52.1687,0 -91.9974,-17.1672 -119.662,-51.3262 -27.6642,-34.1765 -41.5138,-83.5016 -41.5138,-148.344zm-89.8208 0c0,87.5037 21.8364,155.839 65.6673,204.673 43.8309,48.8336 105.162,73.1626 184.328,73.1626 79.4994,0 141.164,-24.329 184.995,-72.9871 44.0064,-48.6756 66.0008,-117.011 66.0008,-204.848 0,-87.8197 -21.8364,-156.331 -65.6673,-205.164 -43.8309,-48.8336 -105.162,-73.1626 -184.328,-73.1626 -79.4994,0 -141.164,24.329 -184.995,73.0046 -44.0064,48.658 -66.0008,117.169 -66.0008,205.322zm287.156 359.845l0 103.003 88.8378 0 0 -103.003 -88.8378 0zm-161.158 0l0 103.003 88.8378 0 0 -103.003 -88.8378 0z"
     id="path879" /></glyph>
   <glyph
   unicode="  "
   horiz-adv-x="581"
   id="glyph881"><path
     d="M129.825 262.16c0,-64.8247 14.0076,-114.325 41.8473,-148.66 27.8221,-34.3345 67.4928,-51.5017 119.328,-51.5017 51.3262,0 90.8389,17.1672 118.17,51.5017 27.3307,34.3345 41.0048,83.8351 41.0048,148.66 0,64.5088 -13.6741,113.834 -41.0048,148.168 -27.3307,34.3345 -66.8434,51.5017 -118.17,51.5017 -52.1687,0 -91.9974,-17.1672 -119.662,-51.3262 -27.6642,-34.1765 -41.5138,-83.5016 -41.5138,-148.344zm-89.8208 0c0,87.5037 21.8364,155.839 65.6673,204.673 43.8309,48.8336 105.162,73.1626 184.328,73.1626 79.4994,0 141.164,-24.329 184.995,-72.9871 44.0064,-48.6756 66.0008,-117.011 66.0008,-204.848 0,-87.8197 -21.8364,-156.331 -65.6673,-205.164 -43.8309,-48.8336 -105.162,-73.1626 -184.328,-73.1626 -79.4994,0 -141.164,24.329 -184.995,73.0046 -44.0064,48.658 -66.0008,117.169 -66.0008,205.322zm394.162 466.833c-6.49476,-32.8249 -17.8343,-57.8209 -34.1589,-75.1637 -16.3422,-17.1672 -37.0026,-25.8211 -61.9986,-25.8211 -4.33569,0 -9.0049,0.333515 -14.5167,1.15852 -5.31868,0.82501 -11.164,2.00109 -17.3252,3.66866l-47.3415 13.1651c-4.16016,1.15852 -8.32031,2.15907 -12.498,2.8261 -4.00218,0.667029 -7.82882,1.00054 -11.3219,1.00054 -9.82991,0 -18.5013,-2.8261 -25.9966,-8.49585 -7.51286,-5.66975 -13.5161,-13.9901 -18.0098,-24.9961l-43.0058 0c5.84528,31.8243 17.0093,56.3289 33.1759,73.6716 16.3247,17.1672 36.6691,25.8211 61.1561,25.8211 5.51177,0 10.6725,-0.333515 15.5172,-1.00054 4.98517,-0.667029 9.32086,-1.66757 13.1651,-2.8261l48.3245 -14.1656c5.00272,-1.17608 9.49639,-2.17662 13.6741,-2.84365 4.33569,-0.667029 8.32031,-1.00054 12.3225,-1.00054 11.006,0 20.3444,3.00163 27.8397,8.84692 7.4953,5.82773 13.4986,14.4991 17.9922,26.1546l43.0058 0z"
     id="path883" /></glyph>
   <glyph
   unicode="  "
   horiz-adv-x="581"
   id="glyph885"><path
     d="M129.825 262.16c0,-64.8247 14.0076,-114.325 41.8473,-148.66 27.8221,-34.3345 67.4928,-51.5017 119.328,-51.5017 51.3262,0 90.8389,17.1672 118.17,51.5017 27.3307,34.3345 41.0048,83.8351 41.0048,148.66 0,64.5088 -13.6741,113.834 -41.0048,148.168 -27.3307,34.3345 -66.8434,51.5017 -118.17,51.5017 -52.1687,0 -91.9974,-17.1672 -119.662,-51.3262 -27.6642,-34.1765 -41.5138,-83.5016 -41.5138,-148.344zm-89.8208 0c0,87.5037 21.8364,155.839 65.6673,204.673 43.8309,48.8336 105.162,73.1626 184.328,73.1626 79.4994,0 141.164,-24.329 184.995,-72.9871 44.0064,-48.6756 66.0008,-117.011 66.0008,-204.848 0,-87.8197 -21.8364,-156.331 -65.6673,-205.164 -43.8309,-48.8336 -105.162,-73.1626 -184.328,-73.1626 -79.4994,0 -141.164,24.329 -184.995,73.0046 -44.0064,48.658 -66.0008,117.169 -66.0008,205.322zm106.988 332.005l96.1751 170.005 95.824 0 96.1751 -170.005 -59.9975 0 -84.0106 110.832 -84.9936 -110.832 -59.1725 0z"
     id="path887" /></glyph>
   <glyph
   unicode="  "
   horiz-adv-x="581"
   id="glyph889"><path
     d="M129.825 262.16c0,-64.8247 14.0076,-114.325 41.8473,-148.66 27.8221,-34.3345 67.4928,-51.5017 119.328,-51.5017 51.3262,0 90.8389,17.1672 118.17,51.5017 27.3307,34.3345 41.0048,83.8351 41.0048,148.66 0,64.5088 -13.6741,113.834 -41.0048,148.168 -27.3307,34.3345 -66.8434,51.5017 -118.17,51.5017 -52.1687,0 -91.9974,-17.1672 -119.662,-51.3262 -27.6642,-34.1765 -41.5138,-83.5016 -41.5138,-148.344zm-89.8208 0c0,87.5037 21.8364,155.839 65.6673,204.673 43.8309,48.8336 105.162,73.1626 184.328,73.1626 79.4994,0 141.164,-24.329 184.995,-72.9871 44.0064,-48.6756 66.0008,-117.011 66.0008,-204.848 0,-87.8197 -21.8364,-156.331 -65.6673,-205.164 -43.8309,-48.8336 -105.162,-73.1626 -184.328,-73.1626 -79.4994,0 -141.164,24.329 -184.995,73.0046 -44.0064,48.658 -66.0008,117.169 -66.0008,205.322zm181.169 332.005l99.6682 170.005 98.1586 0 -139.163 -170.005 -58.6635 0z"
     id="path891" /></glyph>
   <glyph
   unicode="  "
   horiz-adv-x="581"
   id="glyph893"><path
     d="M129.825 262.16c0,-64.8247 14.0076,-114.325 41.8473,-148.66 27.8221,-34.3345 67.4928,-51.5017 119.328,-51.5017 51.3262,0 90.8389,17.1672 118.17,51.5017 27.3307,34.3345 41.0048,83.8351 41.0048,148.66 0,64.5088 -13.6741,113.834 -41.0048,148.168 -27.3307,34.3345 -66.8434,51.5017 -118.17,51.5017 -52.1687,0 -91.9974,-17.1672 -119.662,-51.3262 -27.6642,-34.1765 -41.5138,-83.5016 -41.5138,-148.344zm-89.8208 0c0,87.5037 21.8364,155.839 65.6673,204.673 43.8309,48.8336 105.162,73.1626 184.328,73.1626 79.4994,0 141.164,-24.329 184.995,-72.9871 44.0064,-48.6756 66.0008,-117.011 66.0008,-204.848 0,-87.8197 -21.8364,-156.331 -65.6673,-205.164 -43.8309,-48.8336 -105.162,-73.1626 -184.328,-73.1626 -79.4994,0 -141.164,24.329 -184.995,73.0046 -44.0064,48.658 -66.0008,117.169 -66.0008,205.322zm320.824 332.005l-58.6635 0 -139.163 170.005 98.1586 0 99.6682 -170.005z"
     id="path895" /></glyph>
   <glyph
   unicode="  "
   horiz-adv-x="568"
   id="glyph897"><path
     d="M414.998 0l0 321.842c0,51.3262 -7.82882,86.9947 -23.662,106.654 -15.8332,19.6774 -43.0058,29.5073 -81.3425,29.5073 -49.1671,0 -87.3282,-13.8321 -114.501,-41.6718 -27.1551,-27.8397 -40.8292,-67.3349 -40.8292,-118.503l0 -297.829 -87.8372 0 0 523.004 84.0106 0 0 -76.1642c20.1689,30.1568 43.9888,52.6602 71.6706,67.3349 27.6642,14.6571 59.822,21.9944 96.3331,21.9944 39.3196,0 72.4956,-6.00326 99.4927,-17.8343 26.9971,-11.831 47.833,-29.6653 62.5077,-53.5028 8.16233,-12.6736 13.9901,-27.5062 17.6587,-44.6734 3.49313,-16.9917 5.33624,-44.1644 5.33624,-81.3249l0 -24.8381 0 -313.995 -88.8378 0zm19.1683 728.993c-6.49476,-32.8249 -17.8343,-57.8209 -34.1589,-75.1637 -16.3422,-17.1672 -37.0026,-25.8211 -61.9986,-25.8211 -4.33569,0 -9.0049,0.333515 -14.5167,1.15852 -5.31868,0.82501 -11.164,2.00109 -17.3252,3.66866l-47.3415 13.1651c-4.16016,1.15852 -8.32031,2.15907 -12.498,2.8261 -4.00218,0.667029 -7.82882,1.00054 -11.3219,1.00054 -9.82991,0 -18.5013,-2.8261 -25.9966,-8.49585 -7.51286,-5.66975 -13.5161,-13.9901 -18.0098,-24.9961l-43.0058 0c5.84528,31.8243 17.0093,56.3289 33.1759,73.6716 16.3247,17.1672 36.6691,25.8211 61.1561,25.8211 5.51177,0 10.6725,-0.333515 15.5172,-1.00054 4.98517,-0.667029 9.32086,-1.66757 13.1651,-2.8261l48.3245 -14.1656c5.00272,-1.17608 9.49639,-2.17662 13.6741,-2.84365 4.33569,-0.667029 8.32031,-1.00054 12.3225,-1.00054 11.006,0 20.3444,3.00163 27.8397,8.84692 7.4953,5.82773 13.4986,14.4991 17.9922,26.1546l43.0058 0z"
     id="path899" /></glyph>
   <glyph
   unicode="  "
   horiz-adv-x="583"
   id="glyph901"><path
     d="M359.827 498.008c-14.3236,17.9922 -29.9988,34.4924 -46.9905,49.5006 -17.1672,15.1661 -36.1776,29.3317 -56.9959,42.3213l-131.844 -68.8269 -18.9928 40.0042 107.831 57.1539c-16.5002,9.33841 -34.51,18.6768 -53.6608,27.8397 -19.1683,9.0049 -40.5133,18.3258 -63.9997,27.8397l20.9939 59.9975c31.9999,-9.82991 62.8236,-21.3449 92.6644,-34.668 29.6653,-13.3406 58.5055,-28.5067 86.1697,-45.3404l130.826 69.336 19.0103 -41.0048 -107.831 -56.1533c68.3179,-51.8352 119.662,-109.007 154.154,-171.514 34.51,-62.4901 51.8352,-129.667 51.8352,-201.654 0,-84.8356 -21.9944,-151.012 -66.0008,-198.178 -43.8309,-47.166 -105.162,-70.828 -183.995,-70.828 -79.4994,0 -141.164,23.662 -184.995,70.828 -44.0064,47.166 -66.0008,113.342 -66.0008,198.178 0,78.8323 21.8364,141.99 65.4918,189.331 43.4973,47.324 101.336,71.0035 173.34,71.0035 13.6566,0 26.9971,-1.33406 40.0042,-3.8442 12.9895,-2.66812 25.9966,-6.49476 38.9861,-11.3219zm-228.001 -243.167c0,-62.5077 14.0076,-110.165 41.8473,-143.341 27.8221,-33.0004 67.8264,-49.5006 120.329,-49.5006 51.3262,0 90.8389,16.5002 118.17,49.5006 27.3307,33.1759 40.9872,80.8334 40.9872,143.341 0,61.8231 -13.8321,109.498 -41.4963,142.99 -27.6642,33.5095 -66.8258,50.3432 -117.66,50.3432 -50.1676,0 -89.6628,-17.1672 -118.661,-51.6772 -29.0158,-34.4924 -43.5149,-81.834 -43.5149,-141.656z"
     id="path903" /></glyph>
  </font>
  <font
   id="FontID0"
   font-variant="normal"
   fill-rule="nonzero"
   font-weight="400">
	<font-face
   font-family="Shotgun BT"
   id="font-face906">
	</font-face>
   <missing-glyph
   id="missing-glyph908"><path
     d="M0 0z"
     id="path910" /></missing-glyph>
   <glyph
   unicode="/"
   horiz-adv-x="551"
   id="glyph912"><path
     d="M181.167 -92.6674l-205.167 0 360.832 810.502 204.166 0 -359.83 -810.502z"
     id="path914" /></glyph>
   <glyph
   unicode="."
   horiz-adv-x="439"
   id="glyph916"><path
     d="M78.1662 130.835c0,41.8296 13.8336,77.1647 41.6677,106.334 27.8341,29.1644 60.8324,43.6656 99.1669,43.6656 39.3309,0 72.9969,-14.3343 101.165,-43.1699 28.1679,-28.8305 42.1685,-64.8333 42.1685,-107.664 0,-40.1655 -13.8336,-73.8315 -41.5008,-101.165 -27.5003,-27.3334 -62.0008,-41.0001 -103.335,-41.0001 -35.9977,0 -68.3334,14.6631 -96.6632,44.1664 -28.5018,29.4982 -42.6692,62.4965 -42.6692,98.8331z"
     id="path918" /></glyph>
   <glyph
   unicode="-"
   horiz-adv-x="368"
   id="glyph920"><path
     d="M38.1676 266l0 195.835 291.998 0 0 -195.835 -291.998 0z"
     id="path922" /></glyph>
   <glyph
   unicode=","
   horiz-adv-x="439"
   id="glyph924"><path
     d="M206.998 -8.83125c-39.6648,7.16211 -71.1659,23.3325 -94.1646,48.496 -23.1656,25.3355 -34.6675,55.6682 -34.6675,91.1703 0,41.6627 13.8336,76.9978 41.6677,106.167 27.8341,29.1644 60.8324,43.6656 99.1669,43.6656 38.6683,0 72.3343,-14.3343 100.664,-43.003 28.5018,-28.6636 42.6692,-63.3311 42.6692,-103.997 0,-43.4987 -17.5006,-88.3327 -52.6688,-134.001 -34.9962,-45.6686 -79.9972,-81.3325 -134.831,-106.668l32.1638 98.1705z"
     id="path926" /></glyph>
   <glyph
   unicode="+"
   horiz-adv-x="833"
   id="glyph928"><path
     d="M484.834 596.332l0 -230.998 224.165 0 0 -133.334 -224.165 0 0 -232 -136.667 0 0 232 -224.165 0 0 133.334 224.165 0 0 230.998 136.667 0z"
     id="path930" /></glyph>
   <glyph
   unicode="*"
   horiz-adv-x="499"
   id="glyph932"><path
     d="M250.168 397.998l-84.0031 -122.166 -100.163 72.3343 93.33 114.665 -132.332 37.1661 38.0007 117.168 127.001 -45.5017 0 134.335 116.167 0 0 -134.335 126.996 44.5002 38.0007 -116.167 -133.334 -35.1631 93.3351 -117.669 -100.168 -70.3313 -82.8296 121.164z"
     id="path934" /></glyph>
   <glyph
   unicode=")"
   horiz-adv-x="404"
   id="glyph936"><path
     d="M48.8349 0c34.1667,64.4995 59.3302,124.998 75.1668,181.668 15.9984,56.6647 24.0002,112.667 24.0002,168.33 0,60.0029 -7.83483,118.337 -23.6663,175.168 -15.8366,56.6697 -41.0001,117.001 -75.5006,180.833l188.997 0c34.8344,-64.4995 59.5022,-124.664 74.1704,-180.666 14.6631,-56.0021 21.9972,-114.665 21.9972,-176.165 0,-59.0015 -8.1636,-117.669 -24.334,-176.17 -16.3322,-58.3338 -40.6662,-116 -72.83,-172.998l-188 0z"
     id="path938" /></glyph>
   <glyph
   unicode="("
   horiz-adv-x="404"
   id="glyph940"><path
     d="M356.002 0l-188 0c-32.1688,56.9985 -56.5028,114.665 -72.8351,172.998 -16.1653,58.5007 -24.334,117.168 -24.334,176.17 0,63.6649 7.66791,124.164 23.1656,181 15.5027,56.9985 39.8367,115.666 73.002,175.831l189.002 0c-34.5005,-63.8318 -59.6691,-124.164 -75.5006,-180.833 -15.8366,-56.8316 -23.6663,-115.165 -23.6663,-175.168 0,-55.6632 7.99668,-111.665 24.0002,-168.33 15.8315,-56.6697 41.0001,-117.168 75.1668,-181.668z"
     id="path942" /></glyph>
   <glyph
   unicode="'"
   horiz-adv-x="191"
   id="glyph944"><path
     d="M159.165 703.167l0 -274.836 -126 0 0 274.836 126 0z"
     id="path946" /></glyph>
   <glyph
   unicode="&amp;"
   horiz-adv-x="649"
   id="glyph948"><path
     d="M398.833 96.1676c17.6676,0 33.1652,6.83334 46.665,20.6669 13.5048,13.8336 20.3382,29.9989 20.3382,48.1672 0,19.4986 -6.50457,35.8308 -19.3367,48.9967 -12.8321,13.1659 -28.6636,19.8324 -47.6665,19.8324 -19.4986,0 -35.6639,-6.49952 -48.5011,-19.3316 -12.8321,-12.8321 -19.3316,-29.3313 -19.3316,-49.4975 0,-19.8374 6.49952,-36.3366 19.4986,-49.3356 12.999,-12.999 29.1694,-19.4986 48.3342,-19.4986zm226.168 -96.1676l-309.17 0c-74.4991,0 -135.832,22.8318 -183.833,68.6673 -48.0003,45.6635 -72.0005,103.168 -72.0005,172.498 0,53.1696 15.5027,100.502 46.6701,142.17 31.1673,41.6627 73.4977,71.6667 127.163,89.8299 -21.3295,14.3343 -37.333,31.0004 -47.9953,49.8364 -10.5004,18.8309 -15.8366,40.1655 -15.8366,63.9987 0,36.9992 12.999,68.1665 38.8352,93.1682 25.8312,25.1635 58.3338,37.6669 97.3309,37.6669 37.1661,0 68.5004,-12.6703 94.3366,-38.1676 25.6642,-25.3355 38.4964,-56.169 38.4964,-92.6674 0,-22.8318 -5.49803,-44.3333 -16.6661,-64.4995 -11.0011,-20.1662 -26.4988,-36.6654 -46.3312,-49.3356l249 -473.165z"
     id="path950" /></glyph>
   <glyph
   unicode="%"
   horiz-adv-x="982"
   id="glyph952"><path
     d="M268.999 -12.1645l350.498 729.999 90.5026 0 -350.165 -729.999 -90.8364 0zm494.166 0.996424c-50.3321,0 -93.6639,18.5021 -129.834,55.6682 -36.1646,37.1661 -54.166,81.1656 -54.166,132.332 0,52.5019 18.0014,97.0021 53.9991,133.501 36.0028,36.6654 79.6684,55.0006 131.002,55.0006 49.8313,0 92.5005,-18.5021 128.169,-55.5013 35.6639,-36.8323 53.4984,-81.4994 53.4984,-134.001 0,-50.499 -18.0014,-94.1646 -54.166,-131.331 -36.1697,-37.1661 -79.0007,-55.6682 -128.503,-55.6682zm-537.164 350.999c-50.3321,0 -93.6689,18.5021 -129.834,55.6682 -36.1697,37.1661 -54.166,81.1656 -54.166,132.332 0,52.335 17.9963,96.8352 53.9991,133.334 35.9977,36.5035 79.6684,54.6668 130.997,54.6668 49.8364,0 92.6674,-18.3302 128.503,-55.0006 35.8308,-36.4985 53.6653,-80.8317 53.6653,-133 0,-50.499 -18.1683,-94.3315 -54.4998,-131.831 -36.1646,-37.4999 -79.1677,-56.169 -128.665,-56.169zm540.168 -150.662c16.6661,0 31.3292,6.3326 43.9995,18.9978 12.6652,12.6652 18.9978,27.6672 18.9978,45.0009 0,18.1632 -6.3326,33.666 -18.8309,46.4981 -12.5034,12.8321 -27.5003,19.3367 -45.1678,19.3367 -17.8345,0 -32.8365,-6.17075 -45.0009,-18.3352 -11.9976,-12.1695 -18.0014,-27.6672 -18.0014,-46.4981 0,-18.3352 6.16569,-33.671 18.3352,-46.1693 12.1645,-12.4983 27.5003,-18.8309 45.6686,-18.8309zm-537.169 350.999c16.9999,0 31.6681,6.3326 44.1664,18.9978 12.4983,12.6652 18.8309,27.6672 18.8309,45.0009 0,18.5021 -6.16569,34.1667 -18.3302,46.8319 -12.1695,12.6703 -27.1665,19.0029 -44.6671,19.0029 -18.0014,0 -32.9983,-6.3326 -45.5017,-18.836 -12.3314,-12.4983 -18.4971,-28.1679 -18.4971,-46.9988 0,-18.3352 6.16569,-33.4991 18.3302,-45.6686 12.1695,-12.1645 27.5003,-18.3302 45.6686,-18.3302z"
     id="path954" /></glyph>
   <glyph
   unicode="$"
   horiz-adv-x="644"
   id="glyph956"><path
     d="M370.998 376.001c16.6661,0 31.3342,6.49952 43.9995,19.4986 12.6703,12.999 19.0029,28.1679 19.0029,45.5017 0,18.1632 -6.16569,33.4991 -18.3352,45.9974 -12.1645,12.5034 -27.1665,18.836 -44.6671,18.836 -17.9963,0 -32.9983,-6.16569 -45.4966,-18.5021 -12.3364,-12.3314 -18.5021,-27.8341 -18.5021,-46.3312 0,-18.3352 6.16569,-33.666 18.3352,-46.1693 12.1645,-12.4983 27.5003,-18.8309 45.6635,-18.8309zm72.8351 150.834c43.8325,-29.3363 77.8323,-65.1671 101.499,-107.503 23.8332,-42.3303 35.6689,-87.6651 35.6689,-136.166 0,-69.9975 -20.5,-130.501 -61.5001,-181.501 -41.0001,-50.8328 -95.8337,-83.4973 -164.501,-97.8316l0 -80.9986 -86.001 0 0 77.1647c-35.1682,2.99939 -69.0011,12.6652 -101.833,29.0025 -32.6645,16.4992 -67.9996,42.1634 -106.167,76.8309l104.002 136.333c-34.5005,29.3313 -60.3368,61.3332 -77.3367,96.1676 -17.1668,34.8344 -25.6642,72.8351 -25.6642,113.835 0,37.333 7.99668,73.4977 24.0002,108.165 15.8315,34.6675 38.5014,64.8333 67.8327,90.4976 16.1653,13.6667 33.8329,24.8347 52.6638,33.4991 18.836,8.66939 39.6698,14.8351 62.5016,18.836l0 71.6667 86.001 0 0 -66.8312c31.5012,-4.16778 60.6655,-12.8372 87.1643,-25.8362 26.5039,-12.999 52.1681,-31.1673 76.8359,-54.3329l-75.1668 -100.998z"
     id="path958" /></glyph>
   <glyph
   unicode="#"
   horiz-adv-x="769"
   id="glyph960"><path
     d="M461.835 407.168l-116.668 0 -38.1676 -104.002 116.835 0 38.0007 104.002zm-3.83396 310.667l-63.0023 -178.835 110.836 0 62.8303 178.835 141.168 0 -63.0023 -178.835 125.003 0 -48.8349 -131.831 -123 0 -37.1661 -104.002 126 0 -48.8349 -131.831 -123.997 0 -63.9987 -179.169 -141.002 0 63.9987 179.169 -110.831 0 -64.0038 -179.169 -141.163 0 63.9987 179.169 -126 0 48.8349 131.831 123.997 0 36.1697 104.002 -126 0 47.8334 131.831 126 0 62.9973 178.835 141.168 0z"
     id="path962" /></glyph>
   <glyph
   unicode="&quot;"
   horiz-adv-x="370"
   id="glyph964"><path
     d="M336.002 703.167l0 -274.836 -126.005 0 0 274.836 126.005 0zm-176.837 0l0 -274.836 -126 0 0 274.836 126 0z"
     id="path966" /></glyph>
   <glyph
   unicode="!"
   horiz-adv-x="430"
   id="glyph968"><path
     d="M73.1689 277.835l0 428.164 284.163 0 0 -428.164 -126 0c36.8323,-6.17075 67.0032,-22.6699 90.6695,-49.5025 23.4994,-26.8326 35.3301,-57.4992 35.3301,-91.9998 0,-41.3339 -13.6667,-76.3352 -40.8332,-104.832 -27.1665,-28.5018 -60.6655,-42.6692 -100.497,-42.6692 -40.8332,0 -74.833,13.8336 -101.999,41.3339 -27.1665,27.5003 -40.8332,62.3347 -40.8332,104.665 0,37.3381 11.3299,69.0011 33.9998,94.8373 22.4979,25.9981 53.3314,41.9965 91.9998,48.1672l-126 0z"
     id="path970" /></glyph>
   <glyph
   unicode=" "
   horiz-adv-x="386"
   id="glyph972" />
   <glyph
   unicode="?"
   horiz-adv-x="534"
   id="glyph974"><path
     d="M210.999 383.168c16.9999,0 31.6681,6.3326 44.1664,19.1647 12.5034,12.8321 18.836,27.8341 18.836,45.0009 0,18.1683 -6.16569,33.666 -18.3352,46.4981 -12.1645,12.8372 -27.1665,19.1698 -44.6671,19.1698 -18.0014,0 -32.9983,-6.17075 -45.4966,-18.5021 -12.3364,-12.3314 -18.5021,-27.6672 -18.5021,-46.1643 0,-18.5021 6.16569,-33.9998 18.5021,-46.5032 12.4983,-12.4983 27.4952,-18.664 45.4966,-18.664zm173.833 -107.836l-116.668 0c37.4999,-6.16569 67.5039,-22.331 90.0019,-48.3342 22.6649,-25.9981 33.9998,-57.3323 33.9998,-93.9977 0,-38.1676 -14.0005,-71.3328 -42.0015,-99.5008 -27.996,-28.1679 -60.3317,-42.3303 -97.164,-42.3303 -39.1691,0 -72.5012,13.9955 -100.335,41.8296 -27.8341,27.8341 -41.8296,61.5001 -41.8296,101.003 0,35.9977 11.4968,66.9981 34.6624,92.9962 23.1707,26.0031 53.5034,42.1685 91.3372,48.3342l-117.669 0 0 133 -101.999 99.3339c9.16508,61.5001 35.8308,111.503 80.0022,150.167 44.3333,38.6683 96.1625,58 155.832,58 67.6658,0 124.664,-22.9987 170.834,-68.8342 46.1643,-45.8304 69.3349,-102.166 69.3349,-168.831 0,-40.8332 -9.33705,-78.6669 -28.001,-113.668 -18.836,-35.0013 -45.5017,-64.6664 -80.3361,-89.1673z"
     id="path976" /></glyph>
   <glyph
   unicode="&gt;"
   horiz-adv-x="833"
   id="glyph978"><path
     d="M704.001 367.165l0 -137.163 -575.169 -237.837 0 146.004 391.17 159.666 -391.17 160.166 0 147 575.169 -237.837z"
     id="path980" /></glyph>
   <glyph
   unicode="="
   horiz-adv-x="833"
   id="glyph982"><path
     d="M708.999 250.001l0 -132.833 -584.997 0 0 132.833 584.997 0zm0 229.997l0 -132.833 -584.997 0 0 132.833 584.997 0z"
     id="path984" /></glyph>
   <glyph
   unicode="&lt;"
   horiz-adv-x="833"
   id="glyph986"><path
     d="M704.001 458.001l-391.17 -160.166 391.17 -159.666 0 -146.004 -575.169 237.837 0 137.163 575.169 237.837 0 -147z"
     id="path988" /></glyph>
   <glyph
   unicode=";"
   horiz-adv-x="439"
   id="glyph990"><path
     d="M206.998 -8.83125c-39.6648,7.16211 -71.1659,23.3325 -94.1646,48.496 -23.1656,25.3355 -34.6675,55.6682 -34.6675,91.1703 0,41.6627 13.8336,76.9978 41.6677,106.167 27.8341,29.1644 60.8324,43.6656 99.1669,43.6656 38.6683,0 72.3343,-14.3343 100.664,-43.003 28.5018,-28.6636 42.6692,-63.3311 42.6692,-103.997 0,-43.4987 -17.5006,-88.3327 -52.6688,-134.001 -34.9962,-45.6686 -79.9972,-81.3325 -134.831,-106.668l32.1638 98.1705zm-128.832 469.832c0,41.6677 13.8336,77.1647 41.6677,106.668 27.8341,29.4982 60.8324,44.1664 99.1669,44.1664 39.3309,0 72.9969,-14.5013 101.165,-43.6656 28.1679,-29.1694 42.1685,-65.1671 42.1685,-108.17 0,-40.4993 -13.8336,-74.1653 -41.5008,-101.332 -27.5003,-27.1665 -62.0008,-40.8332 -103.335,-40.8332 -35.9977,0 -68.3334,14.6682 -96.6632,44.1664 -28.5018,29.4982 -42.6692,62.5016 -42.6692,99z"
     id="path992" /></glyph>
   <glyph
   unicode=":"
   horiz-adv-x="439"
   id="glyph994"><path
     d="M78.1662 461.167c0,41.6677 13.8336,77.1647 41.6677,106.668 27.8341,29.4982 60.8324,44.1664 99.1669,44.1664 39.3309,0 72.9969,-14.5013 101.165,-43.6707 28.1679,-29.1644 42.1685,-65.1621 42.1685,-108.165 0,-40.4993 -13.8336,-74.1653 -41.5008,-101.332 -27.5003,-27.1665 -62.0008,-40.8332 -103.335,-40.8332 -35.9977,0 -68.3334,14.6682 -96.6632,44.1664 -28.5018,29.4982 -42.6692,62.5016 -42.6692,99zm0 -330.332c0,41.8296 13.8336,77.1647 41.6677,106.334 27.8341,29.1644 60.8324,43.6656 99.1669,43.6656 39.3309,0 72.9969,-14.3343 101.165,-43.1699 28.1679,-28.8305 42.1685,-64.8333 42.1685,-107.664 0,-40.1655 -13.8336,-73.8315 -41.5008,-101.165 -27.5003,-27.3334 -62.0008,-41.0001 -103.335,-41.0001 -35.9977,0 -68.3334,14.6631 -96.6632,44.1664 -28.5018,29.4982 -42.6692,62.4965 -42.6692,98.8331z"
     id="path996" /></glyph>
   <glyph
   unicode="9"
   horiz-adv-x="625"
   id="glyph998"><path
     d="M382.834 441.998c-17.6676,0 -33.1652,-6.83334 -46.665,-20.3331 -13.5048,-13.4998 -20.3382,-29.3313 -20.3382,-47.4996 0,-19.8324 6.50457,-36.4985 19.5036,-49.8313 12.999,-13.3329 28.8305,-19.9993 47.4996,-19.9993 19.4986,0 35.8308,6.66643 48.8349,19.8324 12.999,13.1659 19.4986,29.832 19.4986,49.9982 0,19.5036 -6.49952,35.6689 -19.4986,48.5011 -13.0041,12.8321 -29.3363,19.3316 -48.8349,19.3316zm-84.17 -271.998c-75.1617,7.501 -135.665,36.3366 -181.83,86.5017 -46.0024,49.9982 -69.0011,112.166 -69.0011,186.498 0,75.1668 26.3319,139.666 78.8338,193.832 52.5019,54.0042 115.666,81.0037 189.164,81.0037 75.1668,0 139.171,-26.8326 191.834,-80.3361 52.8358,-53.4984 79.1677,-118.165 79.1677,-193.665 0,-82.334 -32.4976,-164.835 -97.6647,-247.336 -65.1671,-82.4958 -154.168,-153.333 -267.168,-212.663l76.664 186.164z"
     id="path1000" /></glyph>
   <glyph
   unicode="8"
   horiz-adv-x="590"
   id="glyph1002"><path
     d="M303.166 292.999c16.6661,0 31.1673,6.3326 43.9995,19.0029 12.6703,12.6652 19.0029,27.6621 19.0029,44.9959 0,18.1683 -6.3326,33.671 -18.836,46.5032 -12.4983,12.8321 -27.6672,19.3316 -45.6635,19.3316 -17.5006,0 -32.5026,-6.16569 -44.6671,-18.3352 -12.1695,-12.1645 -18.3352,-27.6621 -18.3352,-46.4981 0,-18.3352 6.16569,-33.666 18.5021,-46.1643 12.4983,-12.5034 27.6672,-18.836 45.9974,-18.836zm0 159.17c16.6661,0 31.1673,6.3326 43.9995,19.1647 12.6703,12.8321 19.0029,27.8341 19.0029,45.3348 0,18.3302 -6.3326,33.8329 -18.836,46.3312 -12.4983,12.6652 -27.6672,18.9978 -45.6635,18.9978 -17.5006,0 -32.5026,-6.16569 -44.6671,-18.664 -12.1695,-12.4983 -18.3352,-28.001 -18.3352,-46.665 0,-18.5021 6.16569,-33.8329 18.5021,-46.0024 12.4983,-12.3314 27.6672,-18.4971 45.9974,-18.4971zm133.834 -14.1674c33.1652,-18.5021 59.664,-46.3362 79.3346,-83.3354 19.6655,-36.8323 29.4982,-77.4985 29.4982,-121.665 0,-66.5025 -24.1671,-124.002 -72.6681,-172.503 -48.496,-48.5011 -107.331,-72.6631 -176.332,-72.6631 -69.0011,0 -127.502,24.3289 -175.669,73.1638 -48.1622,48.8349 -72.3293,108.165 -72.3293,177.834 0,46.4981 10.5004,87.3313 31.4961,122.499 21.0008,35.1682 50.1702,60.6655 87.5032,76.669 -13.3329,17.5006 -23.1656,34.5005 -29.5033,50.499 -6.3326,16.1653 -9.4989,32.9983 -9.4989,50.499 0,49.5025 16.6661,91.499 50.0033,126 33.3322,34.5005 73.9984,51.8343 121.832,51.8343 48.5011,0 89.835,-16.9999 124.002,-50.8328 34.1667,-33.8329 51.3335,-74.833 51.3335,-123 0,-19.8324 -3.17136,-38.1676 -9.33705,-55.0006 -6.16569,-16.6661 -15.9984,-33.3322 -29.6651,-49.9982z"
     id="path1004" /></glyph>
   <glyph
   unicode="7"
   horiz-adv-x="514"
   id="glyph1006"><path
     d="M60.9994 0l157.334 509.835c6.83334,-4.3347 13.4998,-7.501 20.1662,-9.67088 6.66643,-2.16482 13.4998,-3.1663 20.3331,-3.1663 17.8345,0 33.4991,6.83334 46.9988,20.6669 13.4998,13.8336 20.3331,30.004 20.3331,48.668 0,19.9993 -6.49952,36.8323 -19.4986,50.499 -12.999,13.4998 -28.9975,20.3331 -47.8334,20.3331 -13.6667,0 -25.9981,-3.66704 -36.8323,-10.9961 -11.0011,-7.33409 -19.9993,-18.0014 -27.1665,-32.0019l-154.835 0 31.6681 111.832 371.165 0 -91.8329 -705.999 -290 0z"
     id="path1008" /></glyph>
   <glyph
   unicode="6"
   horiz-adv-x="625"
   id="glyph1010"><path
     d="M251.832 264.169c18.0014,0 33.666,6.83334 46.9988,20.3331 13.3379,13.4998 20.0043,29.3313 20.0043,47.4996 0,19.4986 -6.66643,35.9977 -19.8374,49.4975 -13.1659,13.4998 -29.1644,20.3331 -48.0003,20.3331 -19.3316,0 -35.1631,-6.66643 -47.9953,-19.8324 -12.6703,-13.1659 -19.0029,-29.832 -19.0029,-49.9982 0,-19.5036 6.49952,-35.6689 19.4986,-48.5011 13.0041,-12.8321 29.1694,-19.3316 48.3342,-19.3316zm84.17 271.998c75.1668,-7.501 135.665,-36.3315 181.83,-86.5017 46.0024,-49.9982 69.0011,-112.166 69.0011,-186.498 0,-75.1668 -26.3319,-139.833 -79.1677,-193.999 -52.6638,-54.166 -116,-81.3325 -189.831,-81.3325 -74.833,0 -138.665,26.8326 -191.167,80.331 -52.5019,53.4984 -78.8338,118.165 -78.8338,193.999 0,82.5009 32.6645,164.835 97.9986,247.336 65.1671,82.5009 154.334,153.5 267.335,212.663l-77.1647 -185.997z"
     id="path1012" /></glyph>
   <glyph
   unicode="5"
   horiz-adv-x="592"
   id="glyph1014"><path
     d="M24.0002 250.001l186.832 157.167 -89.668 50.8328 68.6673 247.998 282.337 0 -23.0037 -121.999 -147.329 0 -10.8342 -70.8321c74.1653,-2.67062 135.832,-29.0025 184.667,-79.1677 48.8298,-50.0033 73.1638,-111.003 73.1638,-183.003 0,-72.9969 -25.4973,-134.998 -76.3301,-186.331 -51.0048,-51.1666 -113.501,-76.8309 -187.338,-76.8309 -71.8336,0 -133.496,25.4973 -184.495,76.664 -51.1717,51.1666 -76.669,113.001 -76.669,185.502zm243.001 -12.1695c17.6676,0 33.1652,6.83334 46.665,20.5 13.4998,13.6667 20.3331,29.6702 20.3331,47.8334 0,19.5036 -6.49952,36.0028 -19.4986,49.5025 -12.999,13.4998 -28.8356,20.3331 -47.4996,20.3331 -19.1698,0 -35.3351,-6.66643 -48.3342,-19.8324 -12.999,-13.171 -19.4986,-29.8371 -19.4986,-50.0033 0,-19.8324 6.49952,-36.1646 19.3316,-48.9967 12.8321,-12.8372 28.9975,-19.3367 48.5011,-19.3367z"
     id="path1016" /></glyph>
   <glyph
   unicode="4"
   horiz-adv-x="682"
   id="glyph1018"><path
     d="M264.002 188c17.6625,0 33.1652,6.83334 46.665,20.3331 13.4998,13.4998 20.3331,29.3313 20.3331,47.4996 0,19.8324 -6.49952,36.4985 -19.4986,49.9982 -12.999,13.4998 -28.8356,20.3331 -47.4996,20.3331 -19.5036,0 -35.8359,-6.49952 -48.8349,-19.4986 -12.999,-12.999 -19.4986,-29.6651 -19.4986,-49.8313 0,-19.5036 6.49952,-35.8359 19.4986,-49.0018 12.999,-13.1659 29.3313,-19.8324 48.8349,-19.8324zm19.1647 -188l0 101.999 -318.335 0 593.171 615.836 0 -396.167 73.6646 0 0 -219.668 -73.6646 0 0 -101.999 -274.836 0z"
     id="path1020" /></glyph>
   <glyph
   unicode="3"
   horiz-adv-x="605"
   id="glyph1022"><path
     d="M297.501 525.834c13.4998,0 25.1635,4.83544 35.0013,14.5013 9.83273,9.66582 14.83,21.1626 14.83,34.3336 0,14.1624 -4.83038,26.3319 -14.5013,36.3315 -9.83273,9.99965 -21.4965,15.002 -35.3301,15.002 -14.1674,0 -26.0031,-4.83544 -35.8359,-14.3343 -9.66582,-9.4989 -14.4962,-21.5015 -14.4962,-36.0028 0,-14.1674 4.99729,-25.9981 14.83,-35.497 9.83273,-9.4989 21.6684,-14.3343 35.502,-14.3343zm-4.50161 -298.836c18.0014,0 33.666,6.83334 46.9988,20.3382 13.3329,13.4998 20.0043,29.3313 20.0043,47.4996 0,19.8324 -6.50457,36.4985 -19.3367,49.9982 -12.8321,13.4998 -28.6636,20.3331 -47.6665,20.3331 -19.4986,0 -35.6639,-6.49952 -48.5011,-19.4986 -12.8321,-12.999 -19.3316,-29.6702 -19.3316,-49.8364 0,-19.4986 6.49952,-35.8308 19.4986,-48.9967 13.0041,-13.1659 29.1694,-19.8374 48.3342,-19.8374zm-238.833 91.8379l236.501 140.997 -159.832 135.67c13.3329,37.6618 34.8293,67.332 64.4995,88.9953 29.6651,21.5015 63.498,32.3357 101.666,32.3357 49.4975,0 90.9983,-16.6661 124.831,-49.9982 33.671,-33.5041 50.504,-74.9999 50.504,-124.836 0,-18.664 -2.67062,-35.8308 -7.83483,-51.5005 -5.16927,-15.8315 -13.3329,-31.0004 -24.334,-45.6635 33.4991,-21.8353 59.5022,-50.504 77.9993,-86.001 18.5021,-35.502 27.8341,-73.9984 27.8341,-115.666 0,-72.8351 -24.0002,-133.501 -71.8336,-181.835 -47.8334,-48.3342 -107.831,-72.5012 -180.166,-72.5012 -68.6673,0 -127.502,24.5009 -176.499,73.5027 -49.0018,48.9967 -73.5027,109.167 -73.5027,180.833 0,12.6652 0.834568,25.1635 2.49865,37.4999 1.50222,12.3314 4.16778,25.1635 7.66791,38.1676z"
     id="path1024" /></glyph>
   <glyph
   unicode="2"
   horiz-adv-x="605"
   id="glyph1026"><path
     d="M288.002 353.002c17.6625,0 33.1652,6.83334 46.665,20.3331 13.4998,13.4998 20.3331,29.3313 20.3331,47.4996 0,19.8324 -6.49952,36.4985 -19.4986,49.9982 -12.999,13.4998 -28.8356,20.3331 -47.4996,20.3331 -19.5036,0 -35.6689,-6.49952 -48.5011,-19.4986 -12.8321,-12.999 -19.3367,-29.6702 -19.3367,-49.8364 0,-19.4986 6.50457,-35.8308 19.5036,-48.9967 12.999,-13.1659 29.1644,-19.8324 48.3342,-19.8324zm-126 66.8312l-84.8377 40.1655c-0.333827,2.16988 -0.662597,4.83544 -0.82951,7.66791 -0.166914,2.99939 -0.166914,7.33409 -0.166914,13.3329 0,67.6658 22.1641,124.002 66.6643,169.164 44.5002,45.1678 99.5008,67.6708 165.336,67.6708 65.0002,0 120.496,-22.503 166.165,-67.6708 45.8355,-44.9959 68.6673,-98.8331 68.6673,-161.33 0,-22.503 -4.00087,-46.3362 -12.0026,-71.3328 -7.99668,-25.1686 -23.6663,-60.0029 -46.9988,-104.503l-100.163 -192.831 119.166 0 0 -120.168 -469.837 0 128.837 419.833z"
     id="path1028" /></glyph>
   <glyph
   unicode="1"
   horiz-adv-x="461"
   id="glyph1030"><path
     d="M57.1654 0l74.666 442.832c3.66704,-3.83396 7.501,-6.66643 12.0026,-8.1636 4.3347,-1.66914 10.1666,-2.5037 17.3337,-2.5037 19.8324,0 36.6654,6.66643 50.3321,19.8374 13.6667,13.1659 20.5,29.1644 20.5,47.9953 0,19.8374 -6.49952,36.5035 -19.3316,49.8364 -12.8372,13.3329 -28.6687,19.9993 -47.4996,19.9993 -12.1695,0 -23.0037,-2.83247 -33.0034,-8.33557 -9.99965,-5.49803 -20.3331,-14.6631 -31.0004,-27.3334l-9.33199 56.6697 258.332 127.001 0 -717.835 -292.999 0z"
     id="path1032" /></glyph>
   <glyph
   unicode="0"
   horiz-adv-x="772"
   id="glyph1034"><path
     d="M387.336 -12.1645c-46.837,0 -92.3336,9.66582 -136.5,28.9975 -44.1714,19.4986 -83.1685,46.8319 -117.001,82.334 -32.1688,33.8329 -57.4992,73.1689 -75.6675,117.831 -18.1683,44.834 -27.3334,90.1688 -27.3334,136.004 0,48.496 8.83125,94.4984 26.3319,137.997 17.6676,43.4987 43.1699,82.5009 76.669,117.001 34.5005,35.497 73.6646,62.5016 117.163,80.9986 43.6707,18.5021 89.835,27.8341 138.336,27.8341 40.3324,0 79.6684,-7.16717 118.165,-21.6684 38.3345,-14.4962 73.5027,-35.6639 105.333,-63.3311 41.5008,-35.8359 73.1689,-77.6654 95.3381,-125.666 22.1641,-48.0003 33.1652,-99.3339 33.1652,-154.001 0,-45.6686 -9.00322,-90.6695 -27.1665,-135.17 -18.0014,-44.3333 -43.003,-83.3304 -74.833,-116.829 -34.1667,-36.1697 -73.002,-63.8369 -116.501,-83.3354 -43.4987,-19.3316 -88.6666,-28.9975 -135.498,-28.9975zm-1.00148 448.33c16.6661,0 31.1673,6.3326 43.9995,19.0029 12.6652,12.6652 18.9978,27.6672 18.9978,44.9959 0,18.5021 -6.16569,34.1667 -18.3302,46.837 -12.1695,12.6652 -27.1665,18.9978 -44.6671,18.9978 -18.0014,0 -33.1652,-6.3326 -45.6686,-18.8309 -12.4983,-12.5034 -18.8309,-28.1679 -18.8309,-47.0039 0,-18.3302 6.16569,-33.4991 18.4971,-45.6635 12.5034,-12.1695 27.6672,-18.3352 46.0024,-18.3352z"
     id="path1036" /></glyph>
   <glyph
   unicode="O"
   horiz-adv-x="792"
   id="glyph1038"><path
     d="M452.999 503.002c0,-19.1698 6.49952,-35.3351 19.3367,-48.3342 12.8321,-12.999 28.6636,-19.5036 47.6665,-19.5036 18.4971,0 34.5005,6.67149 47.8334,19.8374 13.3329,13.1659 19.9993,29.1644 19.9993,48.0003 0,18.8309 -6.66643,34.8293 -19.9993,48.0003 -13.3329,13.1659 -29.3363,19.8324 -47.8334,19.8324 -19.0029,0 -34.8344,-6.49952 -47.6665,-19.5036 -12.8372,-12.999 -19.3367,-29.1644 -19.3367,-48.3291zm-417.83 -150c0,42.6641 6.83334,83.4973 20.5,122.666 13.6667,38.9971 33.8329,75.1668 60.4986,108.332 34.5005,42.6641 76.1683,75.5006 124.831,98.3324 48.668,22.9987 100.669,34.5005 156.004,34.5005 41.3339,0 81.8332,-7.16717 121.498,-21.6684 39.8317,-14.4962 75.8344,-35.3301 108.499,-62.3296 41.3339,-34.5005 73.1689,-76.0014 95.333,-124.669 22.3361,-48.668 33.5041,-100.33 33.5041,-155.164 0,-42.8361 -7.00026,-84.3369 -20.8339,-124.169 -13.8336,-39.8317 -33.8329,-76.1683 -60.1698,-108.666 -33.8329,-42.6692 -74.833,-75.3337 -122.666,-98.1655 -47.8334,-22.8368 -99.5008,-34.1667 -155.164,-34.1667 -42.6692,0 -83.8362,7.00026 -123.501,21.1626 -39.8317,14.1674 -75.5006,34.5005 -107.503,60.8375 -42.3303,35.497 -74.666,77.6654 -97.164,126.333 -22.503,48.496 -33.666,100.831 -33.666,156.833z"
     id="path1040" /></glyph>
   <glyph
   unicode="N"
   horiz-adv-x="684"
   id="glyph1042"><path
     d="M475.001 454.167c17.6676,0 33.1652,6.83334 46.665,20.3331 13.4998,13.4998 20.3331,29.3313 20.3331,47.4996 0,19.8324 -6.49952,36.4985 -19.4986,49.8313 -12.999,13.3379 -28.8356,20.0043 -47.4996,20.0043 -19.1698,0 -35.3351,-6.66643 -48.3342,-19.8374 -12.999,-13.1659 -19.4986,-29.832 -19.4986,-49.9982 0,-19.4986 6.49952,-35.6639 19.3316,-48.5011 12.8321,-12.8321 29.0025,-19.3316 48.5011,-19.3316zm-323.165 -367.331l0 -86.8356 -78.6669 0 0 717.668 466.832 -98.4993 0 86.8305 70.8321 0 0 -718.164 -458.997 99z"
     id="path1044" /></glyph>
   <glyph
   unicode="M"
   horiz-adv-x="834"
   id="glyph1046"><path
     d="M496.998 51.8343c17.6676,0 33.1703,7.00026 46.6701,21.1677 13.4998,14.0005 20.3331,30.3328 20.3331,48.6629 0,19.6705 -6.49952,36.3366 -19.3367,50.0033 -12.8321,13.4998 -28.6636,20.3331 -47.6665,20.3331 -19.1647,0 -35.3301,-6.66643 -48.3291,-19.9993 -13.0041,-13.171 -19.5036,-30.004 -19.5036,-50.3371 0,-19.9993 6.49952,-36.6654 19.5036,-49.8313 12.999,-13.3329 29.1644,-19.9993 48.3291,-19.9993zm-165.164 0c17.6676,0 33.1652,7.00026 46.665,21.1677 13.4998,14.0005 20.3331,30.3328 20.3331,48.6629 0,19.6705 -6.49952,36.3366 -19.3316,50.0033 -12.8321,13.4998 -28.6687,20.3331 -47.6665,20.3331 -19.1698,0 -35.3351,-6.66643 -48.3342,-19.9993 -12.999,-13.171 -19.4986,-30.004 -19.4986,-50.3371 0,-19.9993 6.49952,-36.6654 19.4986,-49.8313 12.999,-13.3329 29.1644,-19.9993 48.3342,-19.9993zm-258.666 -51.8343l0 717.835 344.667 -236.335 343.331 236.335 0 -717.835 -687.998 0z"
     id="path1048" /></glyph>
   <glyph
   unicode="L"
   horiz-adv-x="549"
   id="glyph1050"><path
     d="M73.1689 0l0 705.999 280.83 0 0 -431.998 -4.83038 0c-22.503,0 -40.3324,-6.3326 -53.5034,-19.0029 -13.1659,-12.6652 -19.6655,-29.6651 -19.6655,-50.8328 0,-19.4986 6.49952,-35.6639 19.4986,-48.5011 13.0041,-12.8321 29.3363,-19.3316 48.8349,-19.3316 19.4986,0 35.6689,7.33409 48.5011,22.1692 12.8321,14.83 19.3316,34.3286 19.3316,58.3287 0,4.66852 0,8.00174 -0.166914,10.3335 -0.166914,2.33679 -0.500741,4.50161 -0.82951,6.83334l115.666 0 0 -233.998 -453.666 0z"
     id="path1052" /></glyph>
   <glyph
   unicode="K"
   horiz-adv-x="667"
   id="glyph1054"><path
     d="M487.165 0c0.667655,4.16778 1.33531,8.16865 1.83605,11.6688 0.500741,3.66704 0.82951,6.66643 1.16334,9.33199 0,19.8324 -6.49952,36.4985 -19.4986,49.8313 -12.999,13.3329 -28.9975,19.9993 -48.0003,19.9993 -19.1647,0 -35.3301,-6.66643 -48.3342,-19.8324 -12.999,-13.1659 -19.4986,-29.832 -19.4986,-49.9982 0,-1.00148 0.166914,-3.1663 0.667655,-6.66643 0.500741,-3.33322 1.33025,-8.16865 2.33173,-14.3343l-281.664 0 0 705.999 235.166 0c-1.83605,-7.501 -3.33322,-13.1659 -4.16778,-16.9999 -0.834568,-4.00087 -1.1684,-7.16717 -1.1684,-9.83273 0,-19.8324 6.49952,-36.1646 19.3367,-49.0018 12.8321,-12.8321 28.9975,-19.3316 48.496,-19.3316 18.0014,0 33.671,6.83334 47.0039,20.5 13.3329,13.6667 19.9993,29.6651 19.9993,47.8334 0,2.99939 -0.500741,6.49952 -1.66914,11.0011 -1.16334,4.3347 -2.83247,9.66582 -5.16421,15.8315l186.999 0 -141.998 -244.164 186.999 -461.835 -178.835 0z"
     id="path1056" /></glyph>
   <glyph
   unicode="J"
   horiz-adv-x="480"
   id="glyph1058"><path
     d="M428.331 247.169c0,-78.8338 -21.1626,-141.669 -63.498,-188.835 -42.3303,-46.9988 -97.4978,-70.4983 -165.497,-70.4983 -49.5025,0 -93.8358,12.8321 -132.833,38.3294 -39.1691,25.5024 -68.3334,60.8375 -87.5032,105.666l135.665 78.1662c1.33531,-20.5 8.16865,-36.9992 20.8339,-49.3306 12.5034,-12.3314 28.3349,-18.5021 47.4996,-18.5021 18.0014,0 33.671,6.66643 47.0039,19.9993 13.3329,13.3379 19.9993,29.3363 19.9993,47.8334 0,19.8374 -6.49952,36.5035 -19.5036,49.8364 -12.999,13.3329 -28.8305,19.9993 -47.3327,19.9993 -8.1636,0 -15.3308,-1.00148 -21.6634,-3.1663 -6.3326,-2.16482 -12.8372,-5.66495 -19.3367,-10.5004l0 439.833 286.166 0 0 -458.83z"
     id="path1060" /></glyph>
   <glyph
   unicode="I"
   horiz-adv-x="430"
   id="glyph1062"><path
     d="M356.831 0l-283.662 0 0 705.999 283.662 0 0 -705.999z"
     id="path1064" /></glyph>
   <glyph
   unicode="H"
   horiz-adv-x="753"
   id="glyph1066"><path
     d="M356.831 0l-283.662 0 0 705.999 283.662 0 0 -141.998 51.3335 0 0 141.998 273 0 0 -705.999 -273 0 0 394.169c13.6667,4.83038 24.0002,12.4983 31.1673,22.6649 7.16717,10.3335 10.6673,22.6649 10.6673,37.333 0,19.4986 -6.49952,35.9977 -19.4986,49.4975 -12.999,13.4998 -29.0025,20.3331 -47.8334,20.3331 -19.4986,0 -35.8359,-6.83334 -49.0018,-20.3331 -13.1659,-13.4998 -19.8324,-30.3328 -19.8324,-50.499 0,-14.0005 3.83396,-26.165 11.5019,-36.4985 7.66285,-10.5004 18.1632,-18.0014 31.4961,-22.4979l0 -394.169z"
     id="path1068" /></glyph>
   <glyph
   unicode="G"
   horiz-adv-x="716"
   id="glyph1070"><path
     d="M380.831 347.165l290 0 0 -350.999 -2.99939 3.33322c-25.9981,29.0025 -48.6629,43.4987 -67.8327,43.4987 -7.501,0 -32.9983,-9.16508 -76.664,-27.5003 -43.5038,-18.4971 -87.3363,-27.6621 -131.336,-27.6621 -41.3339,0 -80.9986,7.00026 -118.999,20.8288 -38.1676,13.8336 -73.4977,33.838 -106,60.1698 -42.3354,34.8344 -74.833,76.664 -97.6647,125.499 -22.8368,48.8349 -34.1667,101.165 -34.1667,156.833 0,43.1649 6.83334,84.3319 20.5,123.501 13.6667,38.9971 33.8329,74.833 60.4986,107.331 33.4991,41.6677 74.666,74.5042 123.334,98.1705 48.668,23.8332 98.4993,35.6639 149.666,35.6639 50.3321,0 97.6647,-11.163 141.998,-33.666 44.3333,-22.4979 83.1685,-55.1675 116.668,-98.1655l-267.001 -236.835zm-38.9971 -136.333c0,-18.8309 6.66643,-34.8344 19.8324,-48.0003 13.1659,-13.1659 29.3313,-19.8324 48.5011,-19.8324 18.4971,0 34.5005,6.66643 47.8334,19.8324 13.3329,13.1659 19.9993,29.1694 19.9993,48.0003 0,19.0029 -6.66643,34.8344 -19.9993,47.6665 -13.3329,12.8321 -29.3363,19.3367 -47.8334,19.3367 -19.1698,0 -35.3351,-6.50457 -48.5011,-19.3367 -13.1659,-12.8321 -19.8324,-28.6636 -19.8324,-47.6665z"
     id="path1072" /></glyph>
   <glyph
   unicode="F"
   horiz-adv-x="644"
   id="glyph1074"><path
     d="M73.1689 0l0 705.999 525.829 0 0 -228.333c-11.3299,14.0005 -22.6649,24.1671 -33.9998,30.4997 -11.163,6.3326 -23.3325,9.4989 -36.3315,9.4989 -21.8353,0 -39.8317,-7.33409 -54.166,-22.1641 -14.3343,-14.8351 -21.5015,-33.666 -21.5015,-56.6697 0,-22.8318 7.33409,-41.3288 22.1692,-55.4963 14.83,-14.3343 34.5005,-21.5015 58.8345,-21.5015 12.1645,0 23.3325,2.16482 33.9998,6.3326 10.4953,4.16778 20.8288,10.5004 30.9954,19.0029l0 -162.169c-20.5,15.002 -39.8317,25.8362 -57.8331,32.6696 -18.1632,6.83334 -36.4985,10.3284 -55.4963,10.3284 -40.3324,0 -74.666,-13.9955 -102.834,-41.9965 -28.1679,-28.001 -42.1685,-63.0023 -42.1685,-104.999 0,-23.0037 5.00235,-44.6671 14.8351,-64.8333 9.99965,-20.1713 24.8347,-39.0022 44.3333,-56.169l-326.665 0z"
     id="path1076" /></glyph>
   <glyph
   unicode="E"
   horiz-adv-x="775"
   id="glyph1078"><path
     d="M388.165 415.999c17.6676,0 33.1703,6.83334 46.6701,20.3331 13.4998,13.4998 20.3331,29.3363 20.3331,47.4996 0,19.8324 -6.49952,36.5035 -19.5036,50.0033 -12.999,13.4998 -28.8305,20.3331 -47.4996,20.3331 -19.4986,0 -35.8308,-6.49952 -48.8298,-19.5036 -13.0041,-12.999 -19.5036,-29.6651 -19.5036,-49.8313 0,-19.4986 6.49952,-35.8359 19.5036,-49.0018 12.999,-13.1659 29.3313,-19.8324 48.8298,-19.8324zm17.6676 -60.9994l238.332 -267.998c-37.4999,-33.838 -75.8344,-58.6676 -114.998,-74.5042 -39.1691,-15.8315 -82.334,-23.6663 -129.166,-23.6663 -48.8349,0 -95.333,9.33705 -139.666,27.8341 -44.3333,18.5021 -83.3354,45.0009 -117.168,79.5015 -34.1667,34.6675 -60.6655,74.3322 -79.1677,119.5 -18.4971,45.0009 -27.8341,91.499 -27.8341,139.332 0,49.8313 9.17014,96.8352 27.6672,141.168 18.3352,44.1664 44.834,83.1635 79.3346,116.663 33.8329,33.1703 73.002,58.6676 117.335,76.3352 44.5002,17.8345 90.9983,26.6657 139.499,26.6657 99.5008,0 183.833,-34.3336 252.667,-102.834 68.8342,-68.5004 104.164,-154.496 106.167,-257.998l-353.002 0z"
     id="path1080" /></glyph>
   <glyph
   unicode="D"
   horiz-adv-x="684"
   id="glyph1082"><path
     d="M76.1683 0l0 705.999 202.497 0c54.8337,0 98.6662,-4.3347 132.003,-12.999 33.1652,-8.50248 63.8318,-22.6649 92.1667,-42.1685 46.665,-31.4961 82.9966,-73.4977 109.5,-125.666 26.3319,-52.335 39.4978,-108.666 39.4978,-169.164 0,-61.8339 -12.3314,-118.504 -36.8323,-169.67 -24.6678,-51.3335 -59.6691,-93.33 -105.333,-126.333 -29.0025,-21.1626 -60.9994,-36.3315 -96.3345,-45.8304 -35.3351,-9.4989 -80.8317,-14.1674 -136.5,-14.1674l-200.666 0zm348.501 419.833c17.9963,0 33.666,6.83334 47.1658,20.3331 13.4998,13.4998 20.3331,29.3313 20.3331,47.4996 0,19.8324 -6.49952,36.4985 -19.4986,49.9982 -13.0041,13.5048 -29.0025,20.3382 -48.0003,20.3382 -19.1698,0 -35.3351,-6.67149 -48.3342,-19.8374 -12.999,-13.1659 -19.5036,-29.9989 -19.5036,-50.499 0,-19.4986 6.50457,-35.6639 19.5036,-48.5011 12.999,-12.8321 29.1644,-19.3316 48.3342,-19.3316z"
     id="path1084" /></glyph>
   <glyph
   unicode="C"
   horiz-adv-x="683"
   id="glyph1086"><path
     d="M335.835 280.835c17.9963,0 33.666,6.83334 46.9988,20.5 13.3329,13.6667 19.9993,29.6651 19.9993,47.8334 0,19.4986 -6.49952,35.9977 -19.3316,49.4975 -12.8372,13.4998 -28.6687,20.3331 -47.6665,20.3331 -19.5036,0 -35.6689,-6.49952 -48.5011,-19.4986 -12.8321,-12.999 -19.3367,-29.4982 -19.3367,-49.3356 0,-19.8324 6.50457,-36.3315 19.5036,-49.4975 12.999,-13.1659 29.1644,-19.8324 48.3342,-19.8324zm344.5 -129.834c-32.1688,-50.499 -74.5042,-90.1688 -126.667,-118.999 -52.335,-28.8356 -108.499,-43.1699 -168.836,-43.1699 -45.8304,0 -89.3342,9.00322 -130.334,26.8326 -41.0001,18.0014 -78.5,44.5002 -112.333,79.6684 -34.1667,35.1682 -59.9979,74.3322 -77.6654,117.669 -17.5006,43.1649 -26.3319,89.663 -26.3319,138.999 0,42.998 6.83334,84.165 20.5,123.334 13.6667,39.164 33.8329,75.1668 60.4986,107.664 34.8344,43.3318 75.8344,76.1683 123.167,98.3324 47.1658,22.3361 99,33.5041 155.665,33.5041 53.1696,0 104.336,-13.171 153.834,-39.336 49.5025,-26.165 91.666,-62.6685 126.5,-109.5l-229.167 -215.835 231.17 -199.163z"
     id="path1088" /></glyph>
   <glyph
   unicode="B"
   horiz-adv-x="683"
   id="glyph1090"><path
     d="M367.165 286.166c17.6676,0 33.1703,6.83334 46.6701,20.3331 13.4998,13.4998 20.3331,29.3363 20.3331,47.4996 0,19.8324 -6.49952,36.5035 -19.4986,49.8364 -13.0041,13.3329 -28.8356,19.9993 -47.5046,19.9993 -19.4986,0 -35.8308,-6.49952 -48.8298,-19.3367 -12.999,-12.8321 -19.5036,-29.3313 -19.5036,-49.4975 0,-19.8324 6.50457,-36.3315 19.5036,-49.3356 12.999,-12.999 29.3313,-19.4986 48.8298,-19.4986zm0 165.002c17.6676,0 33.1703,6.83334 46.6701,20.3331 13.4998,13.4998 20.3331,29.3313 20.3331,47.4996 0,19.4986 -6.49952,35.9977 -19.4986,49.4975 -13.0041,13.4998 -28.8356,20.3331 -47.5046,20.3331 -19.4986,0 -35.8308,-6.66643 -48.8298,-19.8324 -12.999,-13.1659 -19.5036,-29.832 -19.5036,-49.9982 0,-19.4986 6.50457,-35.6689 19.5036,-48.5011 12.999,-12.8321 29.3313,-19.3316 48.8298,-19.3316zm-290.996 -451.168l0 705.999 273 0c61.5001,0 107.497,-11.0011 137.663,-32.9983 30.3328,-22.0023 45.5017,-55.1675 45.5017,-99.8346 0,-26.9995 -7.16717,-50.9997 -21.6684,-72.0005 -14.4962,-21.0008 -34.6624,-36.9992 -60.3317,-48.0003 60.4986,-10.1666 108.332,-36.1646 143.667,-78.1662 35.3351,-42.0015 52.9976,-93.8308 52.9976,-155.832 0,-33.8329 -7.99668,-66.3355 -24.162,-97.6698 -16.1704,-31.1623 -38.0007,-56.6647 -65.6679,-76.497 -22.1692,-15.6697 -47.6665,-27.1665 -76.3352,-34.3336 -28.8305,-7.16717 -65.1671,-10.6673 -108.666,-10.6673l-295.999 0z"
     id="path1092" /></glyph>
   <glyph
   unicode="A"
   horiz-adv-x="643"
   id="glyph1094"><path
     d="M254.002 238.833c0,-18.8309 6.66643,-34.8344 19.8324,-48.0003 13.1659,-13.1659 29.1644,-19.8324 48.0003,-19.8324 18.8309,0 34.9962,6.66643 48.3342,19.9993 13.3329,13.3329 19.9993,29.3313 19.9993,47.8334 0,18.836 -6.66643,35.0013 -19.9993,48.3342 -13.3379,13.3329 -29.5033,19.9993 -48.3342,19.9993 -18.836,0 -34.8344,-6.66643 -48.0003,-19.8324 -13.1659,-13.1659 -19.8324,-29.3363 -19.8324,-48.5011zm-265.17 -238.833l333.003 717.835 331.996 -717.835 -664.999 0z"
     id="path1096" /></glyph>
   </font>
</defs>
</svg>
